<?xml version="1.0" standalone="no"?>
<!DOCTYPE svg PUBLIC "-//W3C//DTD SVG 1.1//EN" "http://www.w3.org/Graphics/SVG/1.1/DTD/svg11.dtd" >
<svg xmlns="http://www.w3.org/2000/svg" xmlns:xlink="http://www.w3.org/1999/xlink" version="1.1">
<metadata></metadata>
<defs>
<font id="times_new_romanregular" horiz-adv-x="1024" >
<font-face units-per-em="2048" ascent="1638" descent="-410" />
<missing-glyph horiz-adv-x="512" />
<glyph horiz-adv-x="0" />
<glyph horiz-adv-x="682" />
<glyph unicode=" "  horiz-adv-x="512" />
<glyph unicode="&#x09;" horiz-adv-x="512" />
<glyph unicode="&#xa0;" horiz-adv-x="512" />
<glyph unicode="!" horiz-adv-x="682" d="M228 1248q0 63 33.5 101t80.5 38t79.5 -38t32.5 -113q0 -24 -4 -67l-90 -810h-38l-88 810q-6 53 -6 79zM229 83q0 45 32.5 77.5t78.5 32.5t78.5 -32.5t32.5 -77.5q0 -46 -32.5 -78.5t-78.5 -32.5t-78.5 32.5t-32.5 78.5z" />
<glyph unicode="&#x22;" horiz-adv-x="836" d="M133 1265q0 64 26.5 93t71.5 29q44 0 73 -29.5t29 -78.5q0 -39 -26 -181l-54 -295h-43l-55 296q-22 122 -22 166zM498 1266q0 63 28 92t74 29q43 0 71.5 -29t28.5 -78q0 -85 -19 -184l-57 -293h-48l-54 292l-22 121q-2 25 -2 50z" />
<glyph unicode="#" d="M37 427v82h187l69 343h-256v80h275l91 455h83l-91 -455h337l97 455h83l-95 -455h170v-80h-185l-70 -343h255v-82h-272l-93 -455h-81l91 455h-339l-95 -455h-83l93 455h-171zM308 509h339l72 343h-341z" />
<glyph unicode="$" d="M108 51v283h44q11 -137 86 -210t224 -87v584q-225 139 -300 246q-53 76 -53 185q0 123 91.5 215t261.5 111v92h64v-92q82 -5 138 -19q29 -7 192 -69v-299h-39q-13 159 -82.5 232.5t-208.5 87.5v-508q252 -176 323.5 -259.5t71.5 -207.5q0 -138 -104.5 -243t-290.5 -121 v-128h-64v128q-94 4 -175 21.5t-179 57.5zM265 1117q0 -73 44 -136.5t153 -135.5v465q-100 -12 -148.5 -63.5t-48.5 -129.5zM526 37q75 13 115 37q56 35 88.5 91.5t32.5 120.5q0 66 -39.5 125t-196.5 167v-541z" />
<glyph unicode="%" horiz-adv-x="1706" d="M72 1018q0 105 40 193.5t109.5 132t142.5 43.5q135 0 209.5 -112t74.5 -257q0 -174 -84 -269t-202 -95q-79 0 -145 43.5t-105.5 129.5t-39.5 191zM231 1019q0 -139 22 -212q17 -55 53 -85q21 -18 52 -18q48 0 82 52q50 77 50 257q0 190 -49 267q-32 51 -80 51 q-51 0 -90.5 -60t-39.5 -252zM315 -56l988 1443h89l-988 -1443h-89zM1060 308q0 105 39.5 192t108 130t138.5 43q71 0 141.5 -45t109 -131t38.5 -189q0 -177 -85 -270.5t-201 -93.5q-73 0 -141.5 45t-108 128.5t-39.5 190.5zM1219 301q0 -179 46 -250q34 -51 82 -51 q46 0 82 55q48 73 48 251q0 188 -48 263q-33 51 -82 51q-48 0 -83 -54q-45 -70 -45 -265z" />
<glyph unicode="&#x26;" horiz-adv-x="1593" d="M75 267q0 121 87 241.5t327 249.5q-47 104 -64 170.5t-17 127.5q0 171 126 261q98 70 223 70q119 0 194 -70.5t75 -173.5q0 -106 -72.5 -186t-256.5 -175q127 -226 265 -414q176 210 176 354q0 46 -30 82q-22 27 -63 32v37h420v-37q-87 -7 -128.5 -38.5t-129.5 -190.5 t-198 -297q89 -104 159 -145.5t141 -41.5q69 0 117 37.5t68 110.5l37 -27q-37 -141 -119 -208t-191 -67q-82 0 -166.5 44.5t-184.5 150.5q-124 -110 -223.5 -152.5t-212.5 -42.5q-165 0 -262 88t-97 210zM282 359q0 -107 69 -188t186 -81q63 0 121.5 25t159.5 107 q-132 180 -183 263t-112 206q-120 -69 -180.5 -152t-60.5 -180zM579 1135q0 -49 17 -109.5t67 -178.5q124 59 185.5 134t61.5 167q0 72 -44.5 119t-110.5 47q-87 0 -131.5 -60.5t-44.5 -118.5z" />
<glyph unicode="'" horiz-adv-x="369" d="M81 1265q0 64 26 93t71 29t74.5 -29.5t29.5 -77.5q0 -37 -26 -182l-54 -295h-44l-54 296q-23 123 -23 166z" />
<glyph unicode="(" horiz-adv-x="682" d="M84 491q0 310 153 565.5t399 365.5v-42q-123 -68 -202 -186t-118 -299t-39 -378q0 -214 33 -389q26 -138 63 -221.5t99.5 -160.5t163.5 -147v-37q-151 76 -252 178q-144 145 -222 342t-78 409z" />
<glyph unicode=")" horiz-adv-x="682" d="M46 -401q123 69 202.5 186.5t118 299t38.5 378.5q0 213 -33 389q-25 138 -62.5 221t-99.5 160t-164 147v42q152 -75 253 -177q143 -146 221 -342.5t78 -409.5q0 -310 -152.5 -565.5t-399.5 -365.5v37z" />
<glyph unicode="*" d="M145 839q0 25 20.5 52.5t61.5 45.5q27 12 123 32q62 13 121 38q-54 27 -129 42q-123 26 -152 47q-45 33 -45 80q0 27 22.5 49.5t52.5 22.5q33 0 70 -21t92 -84.5t112 -98.5q-4 69 -28 137q-34 98 -34 135q0 52 24.5 79t60.5 27q31 0 54 -27t23 -77q0 -45 -26.5 -125.5 t-32.5 -148.5q55 35 99 85q68 79 101 98t67 19q33 0 55.5 -22.5t22.5 -53.5q0 -37 -33 -66t-165 -58q-77 -17 -128 -39q52 -27 127 -41q121 -22 158.5 -55t37.5 -72q0 -30 -22.5 -52t-52.5 -22t-66.5 21t-98.5 94q-41 49 -102 92q2 -57 23 -124q36 -118 36 -161 q0 -40 -24 -67.5t-51 -27.5q-37 0 -67 29q-21 21 -21 67q0 48 23 115.5t29 93t11 75.5q-59 -39 -103 -87q-73 -82 -110 -104q-26 -16 -54 -16q-34 0 -58 23t-24 51z" />
<glyph unicode="+" horiz-adv-x="1155" d="M37 640v82h498v497h80v-497h500v-82h-500v-499h-80v499h-498z" />
<glyph unicode="," horiz-adv-x="512" d="M110 81q0 49 37.5 84t91.5 35q66 0 117.5 -57.5t51.5 -152.5q0 -103 -71.5 -191.5t-226.5 -139.5v44q103 34 159.5 105.5t56.5 151.5q0 19 -9 32q-7 9 -14 9q-11 0 -48 -20q-18 -9 -38 -9q-49 0 -78 29t-29 80z" />
<glyph unicode="-" horiz-adv-x="682" d="M83 384v151h517v-151h-517z" />
<glyph unicode="." horiz-adv-x="512" d="M145 83q0 47 32.5 79t78.5 32q47 0 79 -32.5t32 -78.5t-32.5 -78.5t-78.5 -32.5t-78.5 32.5t-32.5 78.5z" />
<glyph unicode="/" horiz-adv-x="569" d="M3 -28l491 1450h80l-491 -1450h-80z" />
<glyph unicode="0" d="M74 670q0 232 70 399.5t186 249.5q90 65 186 65q156 0 280 -159q155 -197 155 -534q0 -236 -68 -401t-173.5 -239.5t-203.5 -74.5q-194 0 -323 229q-109 193 -109 465zM270 645q0 -280 69 -457q57 -149 170 -149q54 0 112 48.5t88 162.5q46 172 46 485q0 232 -48 387 q-36 115 -93 163q-41 33 -99 33q-68 0 -121 -61q-72 -83 -98 -261t-26 -351z" />
<glyph unicode="1" d="M240 1223l330 161h33v-1145q0 -114 9.5 -142t39.5 -43t122 -17v-37h-510v37q96 2 124 16.5t39 39t11 146.5v732q0 148 -10 190q-7 32 -25.5 47t-44.5 15q-37 0 -103 -31z" />
<glyph unicode="2" d="M44 0v37q353 322 497 526t144 373q0 129 -79 212t-189 83q-100 0 -179.5 -58.5t-117.5 -171.5h-37q25 185 128.5 284t258.5 99q165 0 275.5 -106t110.5 -250q0 -103 -48 -206q-74 -162 -240 -343q-249 -272 -311 -328h354q108 0 151.5 8t78.5 32.5t61 69.5h37l-95 -261 h-800z" />
<glyph unicode="3" d="M83 83q0 29 23.5 51t56.5 22q25 0 51 -8q17 -5 77 -36.5t83 -37.5q37 -11 79 -11q102 0 177.5 79t75.5 187q0 79 -35 154q-26 56 -57 85q-43 40 -118 72.5t-153 32.5h-32v30q79 10 158.5 57t115.5 113t36 145q0 103 -64.5 166.5t-160.5 63.5q-155 0 -259 -166l-33 16 q58 137 146.5 211.5t220.5 74.5q163 0 250 -106q66 -79 66 -169q0 -148 -186 -306q125 -49 189 -140t64 -214q0 -176 -112 -305q-146 -168 -423 -168q-137 0 -186.5 34t-49.5 73z" />
<glyph unicode="4" d="M32 358v128l629 898h110v-884h182v-142h-182v-358h-165v358h-574zM130 500h476v673z" />
<glyph unicode="5" d="M98 109q0 28 23 49.5t58 21.5q26 0 45.5 -8t66.5 -41q75 -52 152 -52q117 0 205.5 88.5t88.5 215.5q0 123 -79 229.5t-218 164.5q-109 45 -297 52l260 527h486l-78 -170h-408l-89 -182q265 -39 420 -197q133 -136 133 -320q0 -107 -43.5 -198t-109.5 -155t-147 -103 q-115 -55 -236 -55q-122 0 -177.5 41.5t-55.5 91.5z" />
<glyph unicode="6" d="M88 532q0 182 73 346t208.5 291t259.5 171t231 44h58v-37q-132 -13 -215.5 -52.5t-165 -120.5t-135 -180.5t-89.5 -236.5q144 99 289 99q139 0 241 -112t102 -288q0 -170 -103 -310q-124 -170 -328 -170q-139 0 -236 92q-190 179 -190 464zM278 466q0 -96 35.5 -208.5 t105.5 -178.5q51 -47 124 -47q87 0 155.5 82t68.5 234q0 171 -68 296t-193 125q-38 0 -81.5 -16t-128.5 -69q-18 -135 -18 -218z" />
<glyph unicode="7" d="M76 1035l130 321h727v-38l-452 -1346h-112l405 1221h-373q-113 0 -161 -27q-84 -46 -135 -142z" />
<glyph unicode="8" d="M124 309q0 90 60.5 178.5t208.5 195.5q-161 132 -207.5 212t-46.5 166q0 132 102 227.5t271 95.5q164 0 264 -89t100 -203q0 -76 -54 -155t-225 -186q176 -136 233 -214q76 -102 76 -215q0 -143 -109 -244.5t-286 -101.5q-193 0 -301 121q-86 97 -86 212zM277 314 q0 -129 70.5 -206.5t179.5 -77.5q108 0 173 61t65 148q0 72 -38 129q-71 106 -287 277q-83 -70 -123 -152.5t-40 -178.5zM284 1129q0 -52 26.5 -104t75.5 -99l164 -136q120 108 152 170.5t32 141.5q0 105 -59 164.5t-161 59.5t-166 -59t-64 -138z" />
<glyph unicode="9" d="M81 898q0 178 102 317q123 169 321 169q167 0 286 -138q146 -171 146 -422q0 -226 -111 -421.5t-309 -324.5q-161 -106 -351 -106h-57v37q130 2 242 60.5t216.5 204.5t145.5 321q-157 -101 -284 -101q-143 0 -245 110.5t-102 293.5zM259 1001q0 -211 89 -330 q65 -86 160 -86q46 0 109 22t111 62q18 130 18 208q0 97 -33 209.5t-93.5 172.5t-137.5 60q-89 0 -156 -80t-67 -238z" />
<glyph unicode=":" horiz-adv-x="569" d="M176 83q0 46 32.5 79t78.5 33q47 0 79.5 -33t32.5 -79t-33 -78.5t-79 -32.5t-78.5 32.5t-32.5 78.5zM178 833q0 46 32.5 78.5t78.5 32.5t78.5 -32.5t32.5 -78.5t-32.5 -78.5t-78.5 -32.5t-78.5 32.5t-32.5 78.5z" />
<glyph unicode=";" horiz-adv-x="569" d="M142 81q0 49 37.5 84t91.5 35q66 0 117.5 -57.5t51.5 -152.5q0 -103 -71.5 -191.5t-226.5 -139.5v44q103 34 159.5 105.5t56.5 151.5q0 19 -9 32q-7 9 -14 9q-11 0 -48 -20q-18 -9 -38 -9q-49 0 -78 29t-29 80zM171 835q0 46 32.5 78t78.5 32t78.5 -32t32.5 -78 t-32.5 -78.5t-78.5 -32.5t-78.5 32.5t-32.5 78.5z" />
<glyph unicode="&#x3c;" horiz-adv-x="1155" d="M37 657v49l1076 466v-87l-926 -402l926 -406v-90z" />
<glyph unicode="=" horiz-adv-x="1155" d="M37 475v82h1079v-82h-1079zM37 801v82h1079v-82h-1079z" />
<glyph unicode="&#x3e;" horiz-adv-x="1155" d="M37 187v86l927 402l-927 406v91l1076 -470v-49z" />
<glyph unicode="?" horiz-adv-x="909" d="M92 1100q0 113 97 200t263 87q206 0 303 -120q72 -88 72 -195q0 -73 -32.5 -150t-123.5 -181q-145 -164 -177.5 -232.5t-39.5 -188.5h-41q7 126 31.5 208.5t101.5 229.5q60 113 78 173.5t18 122.5q0 127 -67.5 202t-165.5 75q-87 0 -137 -41t-50 -89q0 -37 30 -91t30 -82 q0 -36 -23 -60.5t-56 -24.5q-42 0 -76.5 41.5t-34.5 115.5zM329 84q0 47 32.5 79.5t78.5 32.5q47 0 79.5 -32.5t32.5 -79.5q0 -46 -33 -78.5t-79 -32.5t-78.5 32.5t-32.5 78.5z" />
<glyph unicode="@" horiz-adv-x="1886" d="M97 444q0 264 124 492.5t347.5 357t474.5 128.5q207 0 373.5 -85.5t253.5 -250t87 -349.5q0 -183 -81.5 -362.5t-207.5 -261.5t-263 -82q-76 0 -114.5 36t-38.5 101q0 56 18 147q-148 -179 -237 -232t-157 -53q-71 0 -126 63.5t-55 169.5q0 145 94.5 325t250.5 293 q115 83 206 83q67 0 111.5 -34.5t60.5 -103.5l33 110l157 22l-117 -399q-65 -224 -79 -284t-14 -96q0 -32 21.5 -54t53.5 -22q73 0 175.5 73t175.5 237t73 342q0 171 -82.5 316t-233 222.5t-332.5 77.5q-231 0 -429 -122.5t-313.5 -352.5t-115.5 -478q0 -230 101.5 -418 t285.5 -284.5t396 -96.5q263 0 475.5 141t328.5 412h58q-90 -274 -327 -444t-540 -170q-238 0 -442 112.5t-317 319t-113 454.5zM653 293q0 -63 35.5 -102.5t79.5 -39.5q58 0 122 44t134 135.5t102 183.5q56 159 56 259q0 66 -36.5 105t-88.5 39q-75 0 -152 -79 q-113 -116 -193 -313q-59 -144 -59 -232z" />
<glyph unicode="A" horiz-adv-x="1479" d="M16 0v37q85 15 110 39q51 48 113 195l477 1116h35l472 -1128q57 -136 103.5 -176.5t129.5 -45.5v-37h-535v37q81 4 109.5 27t28.5 56q0 44 -40 139l-82 195h-525l-92 -214q-34 -79 -34 -118q0 -31 29.5 -54.5t127.5 -30.5v-37h-427zM443 528h466l-230 548z" />
<glyph unicode="B" horiz-adv-x="1366" d="M34 0v37h51q85 0 122 54q23 35 23 149v876q0 126 -29 159q-39 44 -116 44h-51v37h586q164 0 263 -24q150 -36 229 -127.5t79 -210.5q0 -102 -62 -182.5t-183 -119.5q141 -30 211 -96q97 -92 97 -225q0 -101 -64 -193.5t-175.5 -135t-340.5 -42.5h-640zM422 98 q116 -27 229 -27q181 0 276 81.5t95 201.5q0 79 -43 152t-140 115t-240 42q-62 0 -106 -2t-71 -7v-556zM422 746q37 -7 84.5 -10.5t104.5 -3.5q146 0 219.5 31.5t112.5 96.5t39 142q0 119 -97 203t-283 84q-100 0 -180 -22v-521z" />
<glyph unicode="C" horiz-adv-x="1366" d="M74 657q0 203 91 373t250.5 263.5t348.5 93.5q147 0 290 -72q42 -22 60 -22q27 0 47 19q26 27 37 75h35l31 -461h-31q-62 207 -177 298t-276 91q-135 0 -244 -68.5t-171.5 -218.5t-62.5 -373q0 -184 59 -319t177.5 -207t270.5 -72q132 0 233 56.5t222 224.5l31 -20 q-102 -181 -238 -265t-323 -84q-337 0 -522 250q-138 186 -138 438z" />
<glyph unicode="D" horiz-adv-x="1479" d="M35 0v37h51q86 0 122 55q22 33 22 148v876q0 127 -28 159q-39 44 -116 44h-51v37h552q304 0 462.5 -69t255 -230t96.5 -372q0 -283 -172 -473q-193 -212 -588 -212h-606zM422 98q127 -28 213 -28q232 0 385 163t153 442q0 281 -153 443t-393 162q-90 0 -205 -29v-1153z " />
<glyph unicode="E" horiz-adv-x="1251" d="M42 0v37h48q48 0 91 23q32 16 43.5 48t11.5 131v881q0 129 -26 159q-36 40 -120 40h-48v37h1045l15 -297h-39q-21 107 -46.5 147t-75.5 61q-40 15 -141 15h-372v-536h298q116 0 155 35q52 46 58 162h37v-472h-37q-14 99 -28 127q-18 35 -59 55t-126 20h-298v-447 q0 -90 8 -109.5t28 -31t76 -11.5h230q115 0 167 16t100 63q62 62 127 187h40l-117 -340h-1045z" />
<glyph unicode="F" horiz-adv-x="1139" d="M33 0v37h48q84 0 122 49q24 32 24 154v876q0 103 -13 136q-10 25 -41 43q-43 24 -92 24h-48v37h1009l13 -298h-35q-26 95 -60.5 139.5t-85 64.5t-156.5 20h-299v-533h247q85 0 124.5 37.5t52.5 148.5h37v-459h-37q-1 79 -20.5 116t-54 55.5t-102.5 18.5h-247v-426 q0 -103 13 -136q10 -25 42 -43q44 -24 92 -24h49v-37h-582z" />
<glyph unicode="G" horiz-adv-x="1479" d="M72 657q0 179 86 343q102 195 280 300q149 87 352 87q74 0 134.5 -12t171.5 -53q56 -21 75 -21t32.5 17.5t16.5 68.5h37l35 -428h-35q-53 160 -137 241q-121 117 -311 117q-259 0 -394 -205q-113 -173 -113 -412q0 -194 75 -354t196.5 -234.5t249.5 -74.5q75 0 145 19 t135 56v392q0 102 -15.5 133.5t-48 48t-114.5 16.5v38h525v-38h-25q-78 0 -107 -52q-20 -37 -20 -146v-415q-115 -62 -227 -91t-249 -29q-393 0 -597 252q-153 189 -153 436z" />
<glyph unicode="H" horiz-adv-x="1479" d="M35 0v37h48q84 0 122 49q24 32 24 154v875q0 104 -13 137q-10 25 -41 43q-44 24 -92 24h-48v37h581v-37h-49q-48 0 -91 -23q-31 -16 -43 -48.5t-12 -132.5v-388h630v388q0 104 -13 137q-10 25 -42 43q-43 24 -91 24h-48v37h580v-37h-48q-48 0 -91 -23 q-32 -16 -43.5 -48.5t-11.5 -132.5v-875q0 -103 13 -136q10 -25 41 -43q44 -24 92 -24h48v-37h-580v37h48q83 0 121 49q25 32 25 154v413h-630v-413q0 -103 13 -136q10 -25 42 -43q43 -24 91 -24h49v-37h-581z" />
<glyph unicode="I" horiz-adv-x="682" d="M51 0v37h48q84 0 122 49q24 32 24 154v876q0 103 -13 136q-10 25 -41 43q-44 24 -92 24h-48v37h581v-37h-49q-83 0 -121 -49q-25 -32 -25 -154v-876q0 -103 13 -136q10 -25 42 -43q43 -24 91 -24h49v-37h-581z" />
<glyph unicode="J" horiz-adv-x="797" d="M42 122q0 49 25 74q33 31 77 31q32 0 57.5 -21t64.5 -112q23 -54 59 -54q27 0 50.5 33t23.5 117v926q0 103 -13 136q-10 25 -42 43q-43 24 -91 24h-49v37h581v-37h-49q-83 0 -121 -49q-24 -32 -24 -154v-663q0 -153 -33.5 -248t-115.5 -165.5t-198 -70.5q-94 0 -148 46.5 t-54 106.5z" />
<glyph unicode="K" horiz-adv-x="1479" d="M34 0v37h48q84 0 122 49q24 32 24 154v876q0 103 -13 137q-10 24 -41 42q-44 24 -92 24h-48v37h578v-37h-46q-47 0 -91 -23q-31 -16 -43 -48t-12 -132v-415q20 19 137 127q297 272 359 363q27 40 27 70q0 23 -21 40.5t-71 17.5h-31v37h498v-37q-44 -1 -80 -12t-88 -42.5 t-128 -101.5q-22 -20 -203 -205l-207 -206l500 -497q123 -123 210 -167.5t174 -50.5v-37h-645v37q58 0 83.5 19.5t25.5 43.5t-9.5 43t-62.5 71l-468 463v-437q0 -103 13 -136q10 -25 42 -43q43 -24 91 -24h46v-37h-578z" />
<glyph unicode="L" horiz-adv-x="1251" d="M41 0v37h51q86 0 123 56q21 32 21 148v875q0 127 -28 159q-39 44 -116 44h-51v37h614v-37h-10q-99 0 -141 -20q-44 -21 -60 -53t-16 -153v-852q0 -83 16 -114q12 -21 37 -31t156 -10h99q156 0 219 23t115 81.5t104 184.5l33 -7l-116 -368h-1050z" />
<glyph unicode="M" horiz-adv-x="1821" d="M34 0v37h48q86 0 122 52q22 32 22 146v886q0 90 -20 130q-14 29 -51.5 48.5t-120.5 19.5v37h384l492 -1061l484 1061h384v-37h-47q-87 0 -123 -52q-22 -32 -22 -146v-886q0 -125 28 -156q37 -42 117 -42h47v-37h-576v37h48q87 0 122 52q22 32 22 146v906l-523 -1141h-33 l-524 1141v-906q0 -125 27 -156q37 -42 117 -42h48v-37h-472z" />
<glyph unicode="N" horiz-adv-x="1479" d="M-27 1319v37h368l829 -1017v782q0 125 -28 156q-37 42 -117 42h-47v37h472v-37h-48q-86 0 -122 -52q-22 -32 -22 -146v-1143h-36l-894 1092v-835q0 -125 27 -156q38 -42 117 -42h48v-37h-472v37h47q87 0 123 52q22 32 22 146v943q-59 69 -89.5 91t-89.5 41q-29 9 -88 9z " />
<glyph unicode="O" horiz-adv-x="1479" d="M72 683q0 323 220 527q191 177 457 177q264 0 457.5 -200.5t193.5 -500.5q0 -309 -195 -513t-472 -204q-280 0 -470.5 199t-190.5 515zM301 687q0 -332 142 -511q109 -136 288 -136q191 0 315.5 149t124.5 470q0 348 -137 519q-110 136 -304 136q-182 0 -292 -135 q-137 -168 -137 -492z" />
<glyph unicode="P" horiz-adv-x="1139" d="M34 0v37h51q86 0 123 56q20 31 20 147v876q0 128 -27 159q-39 44 -116 44h-51v37h497q182 0 287 -37.5t177 -126.5t72 -211q0 -166 -109.5 -270t-309.5 -104q-49 0 -106 7t-122 21v-395q0 -128 28 -159q38 -44 115 -44h52v-37h-581zM420 692q53 -10 94 -15t70 -5 q104 0 179.5 80.5t75.5 208.5q0 88 -36 163.5t-102 113t-150 37.5q-51 0 -131 -19v-564z" />
<glyph unicode="Q" horiz-adv-x="1479" d="M72 681q0 304 197 505t477 201q266 0 460.5 -201.5t194.5 -508.5q0 -249 -138.5 -437t-360.5 -255q102 -176 220.5 -259t269.5 -95v-32q-138 5 -295 55.5t-297.5 140t-242.5 190.5q-144 58 -228 123q-122 97 -189.5 238.5t-67.5 334.5zM301 681q0 -329 142 -507 q110 -137 291 -137q188 0 303 137q135 162 135 478q0 243 -74 409q-57 128 -151.5 188.5t-212.5 60.5q-182 0 -293 -130q-140 -163 -140 -499z" />
<glyph unicode="R" horiz-adv-x="1366" d="M35 0v37h51q86 0 123 56q21 31 21 147v876q0 128 -28 159q-39 44 -116 44h-51v37h494q216 0 318.5 -31.5t174 -116t71.5 -201.5q0 -125 -81.5 -217t-252.5 -130l280 -389q96 -134 165 -178t180 -56v-37h-362l-459 634q-51 -2 -83 -2q-13 0 -28 0.5t-31 1.5v-394 q0 -128 28 -159q38 -44 114 -44h53v-37h-581zM421 697q19 0 33 -0.5t23 -0.5q194 0 292.5 84t98.5 214q0 127 -79.5 206.5t-210.5 79.5q-58 0 -157 -19v-564z" />
<glyph unicode="S" horiz-adv-x="1139" d="M128 1030q0 146 112 251.5t285 105.5q108 0 229 -53q56 -25 79 -25q26 0 42.5 15.5t26.5 62.5h37v-469h-37q-18 135 -64.5 215t-132.5 127t-178 47q-104 0 -172 -63.5t-68 -144.5q0 -62 43 -113q62 -75 295 -200q190 -102 259.5 -156.5t107 -128.5t37.5 -155 q0 -154 -119.5 -265.5t-307.5 -111.5q-59 0 -111 9q-31 5 -128.5 36.5t-123.5 31.5q-25 0 -39.5 -15t-21.5 -62h-37v465h37q26 -146 70 -218.5t134.5 -120.5t198.5 -48q125 0 197.5 66t72.5 156q0 50 -27.5 101t-85.5 95q-39 30 -213 127.5t-247.5 155.5t-111.5 128t-38 154 z" />
<glyph unicode="T" horiz-adv-x="1251" d="M62 1038l16 318h1107l15 -318h-38q-11 84 -30 120q-31 58 -82.5 85.5t-135.5 27.5h-191v-1036q0 -125 27 -156q38 -42 117 -42h47v-37h-575v37h48q86 0 122 52q22 32 22 146v1036h-163q-95 0 -135 -14q-52 -19 -89 -73t-44 -146h-38z" />
<glyph unicode="U" horiz-adv-x="1479" d="M11 1319v37h586v-37h-52q-84 0 -120 -53q-25 -36 -25 -150v-591q0 -79 14.5 -181t52.5 -159t109.5 -94t175.5 -37q133 0 238 58t143.5 148.5t38.5 306.5v549q0 127 -28 159q-39 44 -116 44h-51v37h480v-37h-51q-80 0 -123 -67q-21 -31 -21 -144v-550q0 -204 -40.5 -316.5 t-159 -193t-322.5 -80.5q-222 0 -337 77t-163 207q-32 89 -32 334v530q0 125 -34.5 164t-111.5 39h-51z" />
<glyph unicode="V" horiz-adv-x="1479" d="M18 1319v37h554v-37q-94 -9 -122 -32t-28 -59q0 -50 46 -156l345 -795l320 785q47 116 47 161q0 29 -29 55.5t-98 37.5q-5 1 -17 3v37h418v-37q-72 -13 -109 -46q-53 -49 -94 -150l-473 -1154h-37l-508 1169q-39 90 -55 110q-25 31 -61.5 48.5t-98.5 22.5z" />
<glyph unicode="W" horiz-adv-x="1933" d="M27 1319v37h502v-37h-24q-53 0 -81 -24t-28 -58q0 -35 44 -161l267 -761l225 647l-40 114l-32 91q-21 50 -47 88q-13 19 -32 32q-25 18 -50 26q-19 6 -60 6v37h528v-37h-36q-56 0 -82 -24t-26 -65q0 -51 45 -178l260 -737l258 747q44 124 44 172q0 23 -14.5 43t-36.5 28 q-38 14 -99 14v37h405v-37q-53 0 -86 -19t-63 -71q-20 -35 -63 -167l-378 -1093h-40l-309 867l-307 -867h-36l-403 1126q-45 126 -57 149q-20 38 -54.5 56.5t-93.5 18.5z" />
<glyph unicode="X" horiz-adv-x="1479" d="M15 0v37q51 5 88 21q62 26 118 70t128 135l320 404l-267 391q-109 159 -185 208.5t-175 52.5v37h627v-37q-80 -3 -109.5 -26t-29.5 -51q0 -37 48 -108l208 -311l241 305q42 54 51.5 74t9.5 41t-12 37q-15 21 -38 29.5t-95 9.5v37h481v-37q-57 -3 -93 -18q-54 -23 -99 -62 t-127 -144l-269 -344l291 -434q121 -180 179.5 -227.5t148.5 -52.5v-37h-582v37q58 1 86 12q21 9 34.5 27.5t13.5 37.5q0 23 -9 46q-7 17 -55 88l-230 348l-284 -364q-45 -58 -54 -77.5t-9 -40.5q0 -32 27 -53t103 -24v-37h-481z" />
<glyph unicode="Y" horiz-adv-x="1479" d="M19 1319v37h580v-37h-30q-47 0 -86.5 -22t-39.5 -66q0 -36 61 -130l283 -437l266 418q60 94 60 140q0 28 -14.5 50t-41.5 34.5t-81 12.5v37h473v-37h-26q-26 0 -76 -23t-91 -66t-101 -140l-327 -515v-340q0 -125 28 -156q38 -42 120 -42h44v-37h-576v37h48q86 0 122 52 q22 32 22 146v321l-372 568q-66 100 -89.5 125t-97.5 60q-20 10 -58 10z" />
<glyph unicode="Z" horiz-adv-x="1251" d="M26 0v37l870 1238h-434q-108 0 -156.5 -23.5t-74 -68t-46.5 -166.5h-38l28 339h1003l-891 -1274h556q128 0 196.5 56t121.5 227l33 -6l-64 -359h-1104z" />
<glyph unicode="[" horiz-adv-x="682" d="M168 -406v1793h440v-79h-290v-1636h290v-78h-440z" />
<glyph unicode="\" horiz-adv-x="569" d="M3 1422h80l490 -1450h-80z" />
<glyph unicode="]" horiz-adv-x="682" d="M75 -328h290v1636h-290v79h440v-1794h-440v79z" />
<glyph unicode="^" horiz-adv-x="961" d="M37 667l431 717h30l425 -717h-92l-350 586l-350 -586h-94z" />
<glyph unicode="_" d="M-17 -358h1059v-84h-1059v84z" />
<glyph unicode="`" horiz-adv-x="682" d="M118 1390h223l106 -345h-35z" />
<glyph unicode="a" horiz-adv-x="909" d="M73 217q0 67 30 116q41 68 142.5 128t337.5 146v36q0 137 -43.5 188t-126.5 51q-63 0 -100 -34q-38 -34 -38 -78l2 -58q0 -46 -23.5 -71t-61.5 -25q-37 0 -60.5 26t-23.5 71q0 86 88 158t247 72q122 0 200 -41q59 -31 87 -97q18 -43 18 -176v-311q0 -131 5 -160.5 t16.5 -39.5t26.5 -10q16 0 28 7q21 13 81 73v-56q-112 -150 -214 -150q-49 0 -78 34t-30 116q-141 -109 -177 -126q-54 -25 -115 -25q-95 0 -156.5 65t-61.5 171zM241 264q0 -72 43 -119.5t99 -47.5q76 0 200 100v349q-151 -60 -195 -85q-79 -44 -113 -92t-34 -105z" />
<glyph unicode="b" d="M-5 1310l275 112h45v-664q133 185 287 185q141 0 246 -120.5t105 -329.5q0 -244 -162 -393q-139 -128 -310 -128q-80 0 -162.5 29t-168.5 87v949q0 156 -7.5 192t-23.5 49t-40 13q-28 0 -70 -16zM315 146q51 -50 105.5 -75.5t111.5 -25.5q91 0 169.5 100t78.5 291 q0 176 -78.5 270.5t-178.5 94.5q-53 0 -106 -27q-40 -20 -102 -80v-548z" />
<glyph unicode="c" horiz-adv-x="909" d="M70 457q0 216 128.5 351t308.5 135q135 0 222 -71.5t87 -148.5q0 -38 -24.5 -61.5t-68.5 -23.5q-59 0 -89 38q-17 21 -22.5 80t-40.5 90q-35 30 -97 30q-100 0 -161 -74q-81 -98 -81 -259q0 -164 80.5 -289.5t217.5 -125.5q98 0 176 67q55 46 107 167l29 -14 q-37 -181 -145 -278.5t-239 -97.5q-156 0 -272 131t-116 354z" />
<glyph unicode="d" d="M68 420q0 197 124 360.5t319 163.5q121 0 200 -77v169q0 157 -7.5 193t-23.5 49t-40 13q-26 0 -69 -16l-13 35l273 112h45v-1059q0 -161 7.5 -196.5t24 -49.5t38.5 -14q27 0 72 17l11 -35l-272 -113h-46v131q-67 -70 -131 -100.5t-138 -30.5q-150 0 -262 125.5 t-112 322.5zM251 499q0 -202 88 -309.5t196 -107.5q91 0 176 91v472q-6 68 -36 124t-79.5 84.5t-96.5 28.5q-88 0 -157 -79q-91 -104 -91 -304z" />
<glyph unicode="e" horiz-adv-x="909" d="M76 446q0 235 120.5 366.5t302.5 131.5q154 0 253 -101.5t99 -271.5h-633q-1 -204 99 -320t235 -116q90 0 156.5 49.5t111.5 169.5l31 -20q-21 -137 -122 -249.5t-253 -112.5q-165 0 -282.5 128.5t-117.5 345.5zM218 629h424q-5 88 -21 124q-25 56 -74.5 88t-103.5 32 q-83 0 -148.5 -64.5t-76.5 -179.5z" />
<glyph unicode="f" horiz-adv-x="682" d="M79 844v72h178v60q0 137 44 232t134.5 153.5t203.5 58.5q105 0 193 -68q58 -45 58 -101q0 -30 -26 -56.5t-56 -26.5q-23 0 -48.5 16.5t-62.5 71t-68 73.5t-69 19q-46 0 -78 -24.5t-46 -76t-14 -265.5v-66h236v-72h-236v-602q0 -128 28 -162q37 -44 99 -44h83v-36h-547v36 h41q40 0 73 20t45.5 54t12.5 132v602h-178z" />
<glyph unicode="g" d="M61 -251q0 24 11 48q17 37 70 103q7 9 102 108q-52 31 -73.5 55.5t-21.5 55.5q0 35 28.5 82t131.5 133q-84 41 -129 114.5t-45 162.5q0 136 102.5 234t262.5 98q131 0 227 -64h194q43 0 50 -2.5t10 -8.5q6 -9 6 -32q0 -26 -5 -36q-3 -5 -10.5 -8t-50.5 -3h-119 q56 -72 56 -184q0 -128 -98 -219t-263 -91q-68 0 -139 20q-44 -38 -59.5 -66.5t-15.5 -48.5q0 -17 16.5 -33t64.5 -23q28 -4 140 -7q206 -5 267 -14q93 -13 148.5 -69t55.5 -138q0 -113 -106 -212q-156 -146 -407 -146q-193 0 -326 87q-75 50 -75 104zM204 -176 q0 -48 58 -84q100 -62 289 -62q180 0 265.5 63.5t85.5 135.5q0 52 -51 74q-52 22 -206 26q-225 6 -346 23q-47 -51 -71 -95t-24 -81zM309 655q0 -158 68 -245q52 -66 132 -66q76 0 125 57t49 179q0 159 -69 249q-51 66 -131 66q-74 0 -124 -59t-50 -181z" />
<glyph unicode="h" d="M13 1310l274 112h46v-670q111 122 176 156.5t130 34.5q78 0 134 -43t83 -135q19 -64 19 -234v-324q0 -87 14 -119q10 -24 34 -38t88 -14v-36h-450v36h21q64 0 89 19.5t35 57.5q3 16 3 94v324q0 150 -15.5 197t-49.5 70.5t-82 23.5q-49 0 -102 -26t-127 -105v-484 q0 -94 10.5 -117t39 -38.5t98.5 -15.5v-36h-454v36q61 0 96 19q20 10 32 38t12 114v829q0 157 -7.5 193t-23 49t-41.5 13q-21 0 -68 -16z" />
<glyph unicode="i" horiz-adv-x="569" d="M60 831l276 112h44v-736q0 -86 12.5 -114.5t37 -42.5t89.5 -14v-36h-445v36q67 0 90 13t36.5 43t13.5 115v353q0 149 -9 193q-7 32 -22 44.5t-41 12.5q-28 0 -68 -15zM195 1321q0 42 29.5 71.5t72.5 29.5q42 0 71.5 -29.5t29.5 -71.5t-29.5 -72t-71.5 -30t-72 30t-30 72z " />
<glyph unicode="j" horiz-adv-x="569" d="M-157 -341q0 35 24.5 60t57.5 25q26 0 53 -13q17 -7 65.5 -50.5t81.5 -43.5q24 0 47 18.5t34 62t11 188.5v652q0 151 -9 194q-7 33 -22 45.5t-41 12.5q-28 0 -68 -15l-14 36l276 112h43v-922q0 -235 -100 -349t-260 -114q-91 0 -135 33t-44 68zM194 1320q0 43 30 73 t72 30q43 0 73 -30t30 -73q0 -42 -30 -72t-73 -30q-42 0 -72 30t-30 72z" />
<glyph unicode="k" d="M17 0v36q70 0 105 17q21 11 32 34q15 33 15 114v834q0 159 -7 194.5t-23 49t-42 13.5q-21 0 -63 -17l-17 35l272 112h46v-911l233 212q74 68 86 86q8 12 8 24q0 20 -16.5 34.5t-54.5 16.5v32h398v-32q-82 -2 -136.5 -25t-119.5 -82l-235 -217l235 -297q98 -123 132 -156 q48 -47 84 -61q25 -10 87 -10v-36h-445v36q38 1 51.5 11.5t13.5 29.5q0 23 -40 74l-281 359v-304q0 -89 12.5 -117t35.5 -40t100 -13v-36h-466z" />
<glyph unicode="l" horiz-adv-x="569" d="M61 1310l273 112h45v-1215q0 -86 12.5 -114t38.5 -42.5t97 -14.5v-36h-449v36q63 0 86 13t36 43t13 115v832q0 155 -7 190.5t-22.5 48.5t-39.5 13q-26 0 -66 -16z" />
<glyph unicode="m" horiz-adv-x="1593" d="M17 831l276 112h43v-195q100 100 118 115q45 38 97 59t103 21q86 0 148 -50t83 -145q103 120 174 157.5t146 37.5q73 0 129.5 -37.5t89.5 -122.5q22 -58 22 -182v-394q0 -86 13 -118q10 -22 37 -37.5t88 -15.5v-36h-452v36h19q59 0 92 23q23 16 33 51q4 17 4 97v394 q0 112 -27 158q-39 64 -125 64q-53 0 -106.5 -26.5t-129.5 -98.5l-2 -11l2 -43v-437q0 -94 10.5 -117t39.5 -38.5t99 -15.5v-36h-463v36q76 0 104.5 18t39.5 54q5 17 5 99v394q0 112 -33 161q-44 64 -123 64q-54 0 -107 -29q-83 -44 -128 -99v-491q0 -90 12.5 -117t37 -40.5 t99.5 -13.5v-36h-453v36q63 0 88 13.5t38 43t13 114.5v350q0 151 -9 195q-7 33 -22 45.5t-41 12.5q-28 0 -67 -15z" />
<glyph unicode="n" d="M12 831l276 112h43v-194q161 194 307 194q75 0 129 -37.5t86 -123.5q22 -60 22 -184v-391q0 -87 14 -118q11 -25 35.5 -39t90.5 -14v-36h-453v36h19q64 0 89.5 19.5t35.5 57.5q4 15 4 94v375q0 125 -32.5 181.5t-109.5 56.5q-119 0 -237 -130v-483q0 -93 11 -115 q14 -29 38.5 -42.5t99.5 -13.5v-36h-453v36h20q70 0 94.5 35.5t24.5 135.5v340q0 165 -7.5 201t-23 49t-41.5 13q-28 0 -67 -15z" />
<glyph unicode="o" d="M69 449q0 126 62.5 250.5t164.5 184t216 59.5q208 0 334 -158q107 -135 107 -310q0 -123 -59 -249t-162.5 -190t-230.5 -64q-207 0 -329 165q-103 139 -103 312zM255 533q0 -200 79.5 -345t209.5 -145q97 0 160 80t63 275q0 244 -105 384q-71 96 -181 96 q-53 0 -106.5 -31.5t-86.5 -110.5t-33 -203z" />
<glyph unicode="p" d="M-7 -401h25h5q52 0 89 21q19 11 29.5 35.5t10.5 124.5v866q0 89 -8 113t-25.5 36t-47.5 12q-24 0 -61 -14l-12 32l282 114h38v-214q71 121 142.5 169.5t150.5 48.5q138 0 230 -108q113 -132 113 -344q0 -237 -136 -392q-112 -127 -282 -127q-74 0 -128 21q-40 15 -90 60 v-279q0 -94 11.5 -119.5t40 -40.5t103.5 -15v-37h-480v37zM318 324q0 -111 9 -146q14 -58 68.5 -102t137.5 -44q100 0 162 78q81 102 81 287q0 210 -92 323q-64 78 -152 78q-48 0 -95 -24q-36 -18 -119 -108v-342z" />
<glyph unicode="q" d="M68 417q0 233 138 379.5t333 146.5q57 0 105 -16t86 -48q58 28 111 64h34v-1178q0 -88 12 -113t37.5 -39t99.5 -14v-37h-462v37h19q56 0 85 16q20 11 32 39.5t12 110.5v394q-91 -108 -159 -147.5t-141 -39.5q-133 0 -237.5 121t-104.5 324zM236 490q0 -185 81.5 -281 t196.5 -96q59 0 105 25.5t91 83.5v430q0 75 -19.5 118t-69.5 73t-113 30q-112 0 -192 -95t-80 -288z" />
<glyph unicode="r" horiz-adv-x="682" d="M13 831l277 112h42v-206q115 206 236 206q55 0 91 -33.5t36 -77.5q0 -39 -26 -66t-62 -27q-35 0 -78.5 34.5t-64.5 34.5q-18 0 -39 -20q-45 -41 -93 -135v-439q0 -76 19 -115q13 -27 46 -45t95 -18v-36h-469v36q70 0 104 22q25 16 35 51q5 17 5 97v355q0 160 -6.5 190.5 t-24 44.5t-43.5 14q-31 0 -70 -15z" />
<glyph unicode="s" horiz-adv-x="797" d="M100 678q0 113 77.5 189t200.5 76q54 0 131 -23q51 -15 68 -15q16 0 25 7t21 31h33v-312h-33q-38 147 -97.5 200t-151.5 53q-70 0 -113 -37t-43 -82q0 -56 32 -96q31 -41 126 -87l146 -71q203 -99 203 -261q0 -125 -94.5 -201.5t-211.5 -76.5q-84 0 -192 30 q-33 10 -54 10q-23 0 -36 -26h-33v327h33q28 -140 107 -211t177 -71q69 0 112.5 40.5t43.5 97.5q0 69 -48.5 116t-193.5 119t-190 130q-45 57 -45 144z" />
<glyph unicode="t" horiz-adv-x="569" d="M20 846v33q55 22 112.5 74.5t102.5 124.5q23 38 64 139h31v-301h214v-70h-214v-594q0 -89 25.5 -120t65.5 -31q33 0 64 20.5t48 60.5h39q-35 -98 -99 -147.5t-132 -49.5q-46 0 -90 25.5t-65 73t-21 146.5v616h-145z" />
<glyph unicode="u" d="M2 879v37h321v-613q0 -128 44.5 -168t107.5 -40q43 0 97.5 27t129.5 103v519q0 78 -28.5 105.5t-118.5 29.5v37h312v-555q0 -159 7.5 -194.5t24 -49.5t38.5 -14q31 0 70 17l14 -35l-274 -113h-45v194q-118 -128 -180 -161t-131 -33q-77 0 -133.5 44.5t-78.5 114.5 t-22 198v409q0 65 -14 90q-13 24 -41 38q-26 13 -90 13h-10z" />
<glyph unicode="v" d="M17 879v37h431v-37h-28q-39 0 -59.5 -19t-20.5 -51q0 -35 21 -83l213 -506l214 525q23 56 23 85q0 14 -8 23q-11 15 -28 20.5t-69 5.5v37h299v-37q-52 -4 -72 -21q-35 -30 -63 -100l-325 -786h-41l-327 773q-22 54 -42 77.5t-51 39.5q-17 9 -67 17z" />
<glyph unicode="w" horiz-adv-x="1479" d="M13 879v37h384v-37q-53 -4 -69.5 -19t-16.5 -43q0 -31 17 -75l196 -527l197 429l-52 135q-24 60 -63 83q-22 14 -82 17v37h436v-37q-72 -3 -102 -26q-20 -16 -20 -51q0 -20 8 -41l208 -526l193 507q20 54 20 86q0 19 -19.5 34t-76.5 17v37h289v-37q-87 -13 -128 -118 l-306 -789h-41l-229 585l-267 -585h-37l-294 770q-29 73 -57 98.5t-88 38.5z" />
<glyph unicode="x" d="M27 879v37h431v-37q-41 0 -57.5 -14t-16.5 -37q0 -24 35 -74q11 -16 33 -50l65 -104l75 104q72 99 72 125q0 21 -17 35.5t-55 14.5v37h310v-37q-49 -3 -85 -27q-49 -34 -134 -148l-125 -167l228 -328q84 -121 120 -145.5t93 -27.5v-36h-432v36q45 0 70 20q19 14 19 37 t-64 116l-134 196l-147 -196q-68 -91 -68 -108q0 -24 22.5 -43.5t67.5 -21.5v-36h-299v36q36 5 63 25q38 29 128 148l192 255l-174 252q-74 108 -114.5 135.5t-101.5 27.5z" />
<glyph unicode="y" d="M12 879v37h427v-37h-21q-45 0 -67.5 -19.5t-22.5 -48.5q0 -39 33 -108l223 -462l205 506q17 41 17 81q0 18 -7 27q-8 11 -25 17.5t-60 6.5v37h298v-37q-37 -4 -57 -16t-44 -45q-9 -14 -34 -77l-373 -914q-54 -133 -141.5 -201t-168.5 -68q-59 0 -97 34t-38 78 q0 42 27.5 67.5t75.5 25.5q33 0 90 -22q40 -15 50 -15q30 0 65.5 31t71.5 120l65 159l-329 691q-15 31 -48 77q-25 35 -41 47q-23 16 -74 28z" />
<glyph unicode="z" horiz-adv-x="909" d="M41 0v36l608 810h-300q-97 0 -127 -12.5t-49 -47.5q-27 -50 -31 -124h-40l6 254h768v-37l-614 -812h334q105 0 142.5 17.5t60.5 61.5q16 32 27 135h34l-11 -281h-808z" />
<glyph unicode="{" horiz-adv-x="983" d="M283 470v41q107 14 167.5 76t60.5 135q0 53 -23 148t-23 168q0 136 104.5 249t271.5 135v-35q-117 -28 -171.5 -91.5t-54.5 -139.5q0 -59 22.5 -155.5t22.5 -164.5q0 -101 -74 -196t-221 -147q144 -53 219.5 -150t75.5 -198q0 -68 -22.5 -164.5t-22.5 -155.5 q0 -76 54.5 -139.5t171.5 -92.5v-35q-167 23 -271.5 135.5t-104.5 249.5q0 72 23 167.5t23 148.5q0 72 -60.5 134.5t-167.5 76.5z" />
<glyph unicode="|" horiz-adv-x="410" d="M161 -442v1864h83v-1864h-83z" />
<glyph unicode="}" horiz-adv-x="983" d="M177 -407q117 29 171.5 92t54.5 140q0 59 -23 155.5t-23 163.5q0 102 74.5 197t221.5 147q-144 53 -220 150t-76 198q0 68 23 164.5t23 155.5q0 76 -54.5 139.5t-171.5 91.5v35q167 -22 271.5 -134.5t104.5 -250.5q0 -72 -23 -167t-23 -148q0 -72 60.5 -134.5 t167.5 -76.5v-41q-107 -14 -167.5 -76.5t-60.5 -134.5q0 -53 23 -148.5t23 -167.5q0 -136 -104.5 -249t-271.5 -136v35z" />
<glyph unicode="~" horiz-adv-x="1108" d="M20 400q6 135 74 206.5t160 71.5q44 0 90 -14q104 -30 273.5 -102.5t238.5 -72.5q75 0 126 48t60 138h45q-4 -130 -74 -203.5t-171 -73.5q-46 0 -99 15.5t-274 105.5q-154 64 -219 64q-70 0 -118 -43t-68 -140h-44z" />
<glyph unicode="&#xa1;" horiz-adv-x="682" d="M228 -290q0 24 5 67l89 810h38l89 -810q5 -53 5 -79q0 -63 -33.5 -101.5t-79.5 -38.5q-47 0 -80 38t-33 114zM232 863q0 46 32 78.5t78 32.5q47 0 79 -32.5t32 -78.5t-32.5 -78t-78.5 -32t-78 32t-32 78z" />
<glyph unicode="&#xa2;" d="M129 452q0 254 157 390q120 105 273 105q20 0 61 -4l140 383h72l-145 -402q101 -45 138 -87q48 -54 48 -115q0 -39 -24 -62t-70 -23q-55 0 -86 38q-18 22 -26 82q-4 31 -17 65l-228 -631q56 -38 94 -51q28 -10 69 -10q61 0 117 25.5t85 60t83 146.5l30 -13 q-47 -188 -163 -292q-90 -81 -221 -81q-81 0 -162 35l-142 -390h-70l155 427q-81 76 -117 154q-51 110 -51 250zM289 535q0 -75 17.5 -138t63.5 -147l223 615q-28 12 -60 12q-102 0 -162 -74q-82 -100 -82 -268z" />
<glyph unicode="&#xa3;" d="M61 105q0 67 46 111.5t118 44.5q17 0 38 -2t47 -6q2 26 2.5 45t0.5 32q0 88 -21 329h-194v95h194q-13 149 -13 199q0 122 49 223t135.5 154.5t185.5 53.5q126 0 189.5 -68t63.5 -136q0 -32 -24.5 -57t-53.5 -25q-38 0 -63 38q-11 18 -15 77.5t-34 87.5q-31 28 -87 28 q-79 0 -130.5 -62t-51.5 -218q0 -73 12 -187q7 -75 10 -108h258v-95h-258q1 -46 1 -68q0 -94 -13.5 -174t-48.5 -184q196 -63 224 -69q52 -12 102 -12q83 0 135 38.5t76 121.5l36 -9q-21 -161 -103.5 -244t-183.5 -83q-68 0 -123 24.5t-203 135.5q-40 -80 -86.5 -120 t-99.5 -40q-50 0 -83.5 34.5t-33.5 94.5zM118 112q0 -36 19.5 -57t45.5 -21q33 0 64.5 31t50.5 107q-22 14 -43 21t-42 7q-45 0 -70 -24.5t-25 -63.5z" />
<glyph unicode="&#xa4;" d="M27 253l144 145q-102 117 -102 282q0 157 102 283l-144 141l56 57l146 -142q52 45 132 73.5t153 28.5q69 0 145.5 -26t134.5 -76l143 142l58 -57l-144 -141q103 -132 103 -281q0 -154 -103 -284l144 -145l-58 -55l-143 143q-134 -103 -270 -103q-88 0 -171.5 30.5 t-123.5 72.5l-146 -143zM150 677q0 -147 106 -253t255 -106t256 107t107 254q0 91 -49 179t-135 135t-178 47q-151 0 -256.5 -106.5t-105.5 -256.5z" />
<glyph unicode="&#xa5;" d="M2 352v73h424v144l-15 36h-409v73h377l-213 496q-37 87 -72.5 115t-91.5 29v38h442v-38q-72 -5 -96.5 -23t-24.5 -39q0 -16 18 -59l214 -519l213 504q21 50 21 75q0 21 -21 41q-14 13 -64 17q-9 0 -27 3v38h346v-38q-60 0 -87 -23q-43 -35 -86 -132l-214 -485h387v-73 h-419l-7 -16v-164h426v-73h-426v-108q0 -112 11 -143q9 -22 34 -38q37 -22 85 -22h41v-41h-515v41h32q70 0 104 26q24 19 33 57q4 19 4 120v108h-424z" />
<glyph unicode="&#xa6;" horiz-adv-x="410" d="M161 300h83v-742h-83v742zM161 680v742h83v-742h-83z" />
<glyph unicode="&#xa7;" d="M156 504q0 92 54 181.5t167 157.5q-67 74 -95.5 135t-28.5 124q0 117 82 199.5t202 82.5q110 0 181.5 -67t71.5 -153q0 -39 -26 -69q-19 -21 -53 -21t-56 23t-22 54q0 15 8 53q5 23 5 43q0 41 -29 68t-80 27q-73 0 -123.5 -51t-50.5 -124q0 -64 27 -106q45 -70 151 -147 q201 -145 275 -260q52 -82 52 -172q0 -91 -53 -182t-168 -160q70 -77 96.5 -133t26.5 -121q0 -122 -82 -204t-202 -82q-108 0 -179.5 68.5t-71.5 156.5q0 37 23.5 62.5t54.5 25.5t53 -23.5t22 -63.5q0 -27 -8 -59.5t-8 -49.5q0 -29 25 -48q39 -30 95 -30q67 0 121.5 52 t54.5 113q0 62 -31 111q-48 75 -174 170q-188 140 -256 247q-51 81 -51 172zM258 590q0 -70 37 -129q52 -81 197 -191q70 -53 122 -101q153 93 153 220q0 65 -44 135.5t-181 177.5q-82 63 -133 110q-151 -91 -151 -222z" />
<glyph unicode="&#xa8;" horiz-adv-x="682" d="M57 1228q0 45 31.5 77t76.5 32q46 0 77.5 -32t31.5 -77t-32 -76.5t-76 -31.5q-45 0 -77 31.5t-32 76.5zM409 1228q0 45 32 77t77 32t76.5 -32t31.5 -77t-31.5 -76.5t-76.5 -31.5t-77 31.5t-32 76.5z" />
<glyph unicode="&#xa9;" horiz-adv-x="1556" d="M69 678q0 185 95.5 355.5t265.5 262t348 91.5q179 0 349 -91.5t265.5 -262t95.5 -355.5q0 -184 -94 -353t-263 -262.5t-353 -93.5t-352.5 93.5t-262.5 262.5t-94 353zM131 678q0 -168 85.5 -322t239.5 -240t322 -86t322.5 86t240 240t85.5 322q0 169 -87 324.5 t-242 239.5t-319 84q-163 0 -318 -84t-242 -239.5t-87 -324.5zM320 672q0 192 140 327.5t358 135.5q46 0 76.5 -6t108.5 -32q25 -8 37 -8q16 0 27 8.5t22 36.5h40l20 -280h-39q-36 119 -114.5 177.5t-188.5 58.5q-82 0 -146 -34t-105 -91q-30 -43 -50 -114t-20 -150 q0 -212 91 -312.5t240 -100.5q195 0 312 162l37 -19q-139 -203 -383 -203q-200 0 -331.5 129.5t-131.5 314.5z" />
<glyph unicode="&#xaa;" horiz-adv-x="565" d="M-6 911q0 44 22 77q30 46 107 93q52 31 217 99q0 109 -26.5 142.5t-79.5 33.5q-48 0 -71 -21.5t-23 -67.5q0 -45 -16.5 -65.5t-41.5 -20.5q-23 0 -39.5 17t-16.5 43q0 55 56.5 99t177.5 44q92 0 141.5 -31t63 -64t13.5 -109v-218q0 -53 2 -61q3 -13 11 -20q7 -6 13 -6 q14 0 58 30v-48q-73 -53 -98 -63.5t-51 -10.5q-25 0 -44.5 20.5t-28.5 74.5q-63 -45 -117 -68t-98 -23q-53 0 -92 38t-39 86zM133 958q0 -34 25.5 -60t63.5 -26q22 0 51.5 11t66.5 33v226q-120 -40 -163.5 -88t-43.5 -96z" />
<glyph unicode="&#xab;" d="M64 464l387 470h57l-244 -470l244 -472h-57zM508 464l394 470h58l-243 -470l243 -472h-58z" />
<glyph unicode="&#xac;" horiz-adv-x="1155" d="M36 797v81h1080v-406h-79v325h-1001z" />
<glyph unicode="&#xad;" horiz-adv-x="682" d="M83 384v151h517v-151h-517z" />
<glyph unicode="&#xae;" horiz-adv-x="1556" d="M69 678q0 185 95.5 355.5t265.5 262t348 91.5q179 0 349 -91.5t265.5 -262t95.5 -355.5q0 -184 -94 -353t-263 -262.5t-353 -93.5t-352.5 93.5t-262.5 262.5t-94 353zM131 678q0 -168 85.5 -322t239.5 -240t322 -86t322.5 86t240 240t85.5 322q0 169 -87 324.5 t-242 239.5t-319 84q-163 0 -318 -84t-242 -239.5t-87 -324.5zM374 249v33q48 0 68 11.5t29 33.5q7 16 7 93v523q0 74 -3 87q-7 23 -25.5 35.5t-63.5 12.5v36h386q145 0 221 -65.5t76 -158.5q0 -76 -51.5 -133.5t-170.5 -88.5l209 -298q38 -53 68 -73q19 -12 53 -15v-33 h-184l-294 405h-76v-309q6 -33 28.5 -48t89.5 -15v-33h-367zM623 697q118 0 172.5 23t83.5 64.5t29 94.5q0 81 -56.5 136t-144.5 55q-38 0 -84 -16v-357z" />
<glyph unicode="&#xaf;" d="M-17 1462v84h1059v-84h-1059z" />
<glyph unicode="&#xb0;" horiz-adv-x="819" d="M98 1078q0 128 89.5 218t217.5 90q129 0 218.5 -90t89.5 -218q0 -127 -90 -217t-218 -90q-127 0 -217 90t-90 217zM182 1079q0 -92 65 -157.5t158 -65.5q92 0 157.5 65.5t65.5 157.5q0 93 -65 158t-158 65t-158 -65t-65 -158z" />
<glyph unicode="&#xb1;" horiz-adv-x="1124" d="M8 141v81h498v418h-498v82h498v497h80v-497h500v-82h-500v-418h501v-81h-1079z" />
<glyph unicode="&#xb2;" horiz-adv-x="614" d="M20 664v29q247 192 328 313q50 74 50 143q0 61 -41.5 102.5t-104.5 41.5q-57 0 -100 -29.5t-65 -88.5h-45q14 98 77.5 153.5t164.5 55.5q106 0 172.5 -58t66.5 -130q0 -66 -48 -141q-75 -117 -295 -295h186q87 0 115.5 12t48.5 44h45l-61 -152h-494z" />
<glyph unicode="&#xb3;" horiz-adv-x="614" d="M44 712q0 17 16.5 31t42.5 14q28 0 81 -24t91 -24q56 0 96 39.5t40 92.5q0 45 -26.5 86t-68.5 57q-60 23 -107 23h-30v28q77 0 129.5 47t52.5 108q0 49 -33 80t-88 31q-85 0 -147 -88l-38 16q36 74 81 108q64 47 149 47q92 0 145 -46t53 -101q0 -68 -105 -155 q72 -26 108.5 -74.5t36.5 -107.5q0 -103 -85.5 -177t-246.5 -74q-84 0 -121 24q-26 17 -26 39z" />
<glyph unicode="&#xb4;" horiz-adv-x="682" d="M236 1045l105 345h224l-295 -345h-34z" />
<glyph unicode="&#xb5;" horiz-adv-x="1180" d="M134 -333q0 46 29 165q20 80 22 104q12 103 12 179q0 5 -1 75v726h164v-533q0 -145 18 -198q13 -40 48 -65t76 -25q118 0 236 134v687h165v-654q0 -100 8 -131q7 -24 24 -37.5t36 -13.5q26 0 44 22q26 31 37 102h42q-9 -121 -63 -176.5t-135 -55.5q-78 0 -120 58 q-30 43 -38 132q-87 -102 -162 -146t-152 -44q-53 0 -92 21q-28 16 -63 64q-1 -31 -1 -46q0 -79 34 -239q13 -61 13 -104q0 -48 -28 -79t-66 -31q-37 0 -62 29t-25 80z" />
<glyph unicode="&#xb6;" horiz-adv-x="928" d="M-14 981q0 110 43 180q58 96 154.5 145.5t252.5 49.5h495v-55h-133v-1743h-72v1743h-187v-1743h-73v1043q-191 8 -285.5 50.5t-144.5 131t-50 198.5z" />
<glyph unicode="&#xb7;" horiz-adv-x="682" d="M236 703q0 44 30.5 74.5t74.5 30.5t74.5 -30.5t30.5 -74.5q0 -43 -31 -74t-74 -31t-74 31t-31 74z" />
<glyph unicode="&#xb8;" horiz-adv-x="682" d="M187 -340q28 -4 48 -4q51 0 86 33.5t35 76.5q0 30 -23 52t-57 22q-10 0 -26 -2l111 178h60l-50 -79q63 -16 94 -54t31 -92q0 -72 -60 -126.5t-155 -54.5q-37 0 -94 7v43z" />
<glyph unicode="&#xb9;" horiz-adv-x="614" d="M136 1297l205 87h35v-592q0 -60 6 -74q5 -9 16 -14q16 -8 79 -8v-32h-325v32q64 0 80 7q12 5 17 16t5 73v374q0 71 -5 94q-3 16 -10.5 22.5t-19.5 6.5q-20 0 -67 -20z" />
<glyph unicode="&#xba;" horiz-adv-x="635" d="M29 1075q0 138 82.5 223.5t212.5 85.5q124 0 205.5 -84.5t81.5 -208.5t-89 -214t-211 -90q-118 0 -200 81.5t-82 206.5zM170 1153q0 -159 69 -258q39 -57 102 -57q57 0 94.5 44.5t37.5 140.5q0 157 -71 256q-44 62 -106 62q-52 0 -89 -45t-37 -143z" />
<glyph unicode="&#xbb;" d="M64 -8l243 470l-243 472h58l394 -472l-394 -470h-58zM516 -8l244 470l-244 472h57l387 -472l-387 -470h-57z" />
<glyph unicode="&#xbc;" horiz-adv-x="1536" d="M134 1297l205 87h35v-592q0 -60 6 -74q5 -9 16 -14q16 -8 79 -8v-32h-325v32q64 0 80 7q12 5 17 16t5 73v374q0 71 -5 94q-3 16 -10.5 22.5t-19.5 6.5q-20 0 -67 -20zM268 -54l935 1438h89l-934 -1438h-90zM933 143v73l376 465h84v-457h108v-81h-108v-183h-117v183h-343z M1016 224h260v316z" />
<glyph unicode="&#xbd;" horiz-adv-x="1536" d="M134 1297l205 87h35v-592q0 -60 6 -74q5 -9 16 -14q16 -8 79 -8v-32h-325v32q64 0 80 7q12 5 17 16t5 73v374q0 71 -5 94q-3 16 -10.5 22.5t-19.5 6.5q-20 0 -67 -20zM244 -54l935 1438h89l-935 -1438h-89zM939 -10q247 192 328 313q50 74 50 143q0 61 -41.5 102.5 t-104.5 41.5q-57 0 -100 -29.5t-65 -88.5h-45q14 97 77.5 153t164.5 56q106 0 172.5 -58.5t66.5 -129.5q0 -66 -48 -142q-75 -116 -295 -294h187q86 0 114.5 11.5t48.5 44.5h45l-61 -153h-494v30z" />
<glyph unicode="&#xbe;" horiz-adv-x="1536" d="M42 712q0 17 16.5 31t42.5 14q28 0 81 -24t91 -24q56 0 96 39.5t40 92.5q0 72 -56.5 120t-175.5 46v28q77 0 129.5 47t52.5 108q0 49 -33 80t-88 31q-85 0 -147 -88l-38 16q36 74 81 108q64 47 149 47q92 0 145 -46t53 -101q0 -68 -105 -155q72 -26 108.5 -74.5 t36.5 -107.5q0 -103 -85.5 -177t-246.5 -74q-84 0 -121 24q-26 17 -26 39zM256 -54l935 1438h86l-931 -1438h-90zM933 143v73l376 465h84v-457h108v-81h-108v-183h-116v183h-344zM1017 224h260v316z" />
<glyph unicode="&#xbf;" horiz-adv-x="909" d="M89 -125q0 83 29 152q43 98 150 221.5t137 191.5t36 186h39q-5 -124 -24.5 -196.5t-102 -246.5t-82.5 -289q0 -132 66 -204t170 -72q87 0 137 41t50 90q0 31 -31 84.5t-31 85.5q0 34 24 57.5t57 23.5q41 0 76 -41.5t35 -110.5q0 -115 -97.5 -202.5t-266.5 -87.5 q-170 0 -270.5 93.5t-100.5 223.5zM341 864q0 46 32.5 78.5t78.5 32.5t78.5 -32.5t32.5 -78.5t-32.5 -78.5t-78.5 -32.5t-78.5 32.5t-32.5 78.5z" />
<glyph unicode="&#xc0;" horiz-adv-x="1479" d="M16 0v37q85 15 110 39q51 48 113 195l477 1116h35l472 -1128q57 -136 103.5 -176.5t129.5 -45.5v-37h-535v37q81 4 109.5 27t28.5 56q0 44 -40 139l-82 195h-525l-92 -214q-34 -79 -34 -118q0 -31 29.5 -54.5t127.5 -30.5v-37h-427zM443 528h466l-230 548zM513 1797h223 l106 -345h-35z" />
<glyph unicode="&#xc1;" horiz-adv-x="1479" d="M16 0v37q85 15 110 39q51 48 113 195l477 1116h35l472 -1128q57 -136 103.5 -176.5t129.5 -45.5v-37h-535v37q81 4 109.5 27t28.5 56q0 44 -40 139l-82 195h-525l-92 -214q-34 -79 -34 -118q0 -31 29.5 -54.5t127.5 -30.5v-37h-427zM443 528h466l-230 548zM630 1452 l105 345h224l-295 -345h-34z" />
<glyph unicode="&#xc2;" horiz-adv-x="1479" d="M16 0v37q85 15 110 39q51 48 113 195l477 1116h35l472 -1128q57 -136 103.5 -176.5t129.5 -45.5v-37h-535v37q81 4 109.5 27t28.5 56q0 44 -40 139l-82 195h-525l-92 -214q-34 -79 -34 -118q0 -31 29.5 -54.5t127.5 -30.5v-37h-427zM443 528h466l-230 548zM454 1462 l189 331h184l190 -331h-31l-273 213l-229 -213h-30z" />
<glyph unicode="&#xc3;" horiz-adv-x="1479" d="M16 0v37q85 15 110 39q51 48 113 195l477 1116h35l472 -1128q57 -136 103.5 -176.5t129.5 -45.5v-37h-535v37q81 4 109.5 27t28.5 56q0 44 -40 139l-82 195h-525l-92 -214q-34 -79 -34 -118q0 -31 29.5 -54.5t127.5 -30.5v-37h-427zM417 1465q4 137 57 198t131 61 q41 0 75 -13q45 -17 127.5 -71.5t122.5 -54.5q32 0 56.5 27t38.5 112h31q1 -93 -24.5 -147.5t-72 -85t-93.5 -30.5q-79 0 -196 80q-63 43 -85 52t-43 9q-41 0 -65 -36q-11 -17 -28 -101h-32zM443 528h466l-230 548z" />
<glyph unicode="&#xc4;" horiz-adv-x="1479" d="M16 0v37q85 15 110 39q51 48 113 195l477 1116h35l472 -1128q57 -136 103.5 -176.5t129.5 -45.5v-37h-535v37q81 4 109.5 27t28.5 56q0 44 -40 139l-82 195h-525l-92 -214q-34 -79 -34 -118q0 -31 29.5 -54.5t127.5 -30.5v-37h-427zM443 528h466l-230 548zM450 1599 q0 45 31.5 77t76.5 32q46 0 77.5 -32t31.5 -77t-32 -76.5t-76 -31.5q-45 0 -77 31.5t-32 76.5zM802 1599q0 45 32 77t77 32t76.5 -32t31.5 -77t-31.5 -76.5t-76.5 -31.5t-77 31.5t-32 76.5z" />
<glyph unicode="&#xc5;" horiz-adv-x="1479" d="M16 0v37q85 15 110 39q51 48 113 195l477 1116h35l472 -1128q57 -136 103.5 -176.5t129.5 -45.5v-37h-535v37q81 4 109.5 27t28.5 56q0 44 -40 139l-82 195h-525l-92 -214q-34 -79 -34 -118q0 -31 29.5 -54.5t127.5 -30.5v-37h-427zM443 528h466l-230 548zM540 1510 q0 79 55.5 135t135.5 56t136 -56t56 -135q0 -80 -56 -136t-136 -56q-79 0 -135 56t-56 136zM609 1510q0 -50 35.5 -86t86.5 -36t86.5 36t35.5 86q0 51 -35.5 86.5t-86.5 35.5t-86.5 -35.5t-35.5 -86.5z" />
<glyph unicode="&#xc6;" horiz-adv-x="1821" d="M-24 0v37q44 1 75.5 19t68.5 65t94 153l412 771q77 143 77 193q0 32 -27 50q-34 25 -146 31v37h1111l15 -298h-34q-13 103 -50 157q-27 39 -78 57q-29 10 -136 10h-331v-536h257q115 0 162 43t55 154h36v-471h-36q-12 100 -32.5 134.5t-68.5 55.5q-23 11 -116 11h-257 v-449q0 -91 7 -108.5t29 -29.5t79 -12h182q109 0 168 18t114 70q73 68 120 179h38l-108 -341h-1018v37h51q83 0 122 49q24 32 24 153v286h-396l-124 -233q-70 -132 -70 -173q0 -28 30.5 -51.5t126.5 -30.5v-37h-426zM478 598h357v684z" />
<glyph unicode="&#xc7;" horiz-adv-x="1366" d="M74 657q0 203 91 373t250.5 263.5t348.5 93.5q147 0 290 -72q42 -22 60 -22q27 0 47 19q26 27 37 75h35l31 -461h-31q-62 207 -177 298t-276 91q-135 0 -244 -68.5t-171.5 -218.5t-62.5 -373q0 -184 59 -319t177.5 -207t270.5 -72q132 0 233 56.5t222 224.5l31 -20 q-102 -181 -238 -265t-323 -84q-337 0 -522 250q-138 186 -138 438zM524 -340q28 -4 48 -4q51 0 86 33.5t35 76.5q0 30 -23 52t-57 22q-10 0 -26 -2l111 178h60l-50 -79q63 -16 94 -54t31 -92q0 -72 -60 -126.5t-155 -54.5q-37 0 -94 7v43z" />
<glyph unicode="&#xc8;" horiz-adv-x="1251" d="M42 0v37h48q48 0 91 23q32 16 43.5 48t11.5 131v881q0 129 -26 159q-36 40 -120 40h-48v37h1045l15 -297h-39q-21 107 -46.5 147t-75.5 61q-40 15 -141 15h-372v-536h298q116 0 155 35q52 46 58 162h37v-472h-37q-14 99 -28 127q-18 35 -59 55t-126 20h-298v-447 q0 -90 8 -109.5t28 -31t76 -11.5h230q115 0 167 16t100 63q62 62 127 187h40l-117 -340h-1045zM406 1797h223l106 -345h-35z" />
<glyph unicode="&#xc9;" horiz-adv-x="1251" d="M42 0v37h48q48 0 91 23q32 16 43.5 48t11.5 131v881q0 129 -26 159q-36 40 -120 40h-48v37h1045l15 -297h-39q-21 107 -46.5 147t-75.5 61q-40 15 -141 15h-372v-536h298q116 0 155 35q52 46 58 162h37v-472h-37q-14 99 -28 127q-18 35 -59 55t-126 20h-298v-447 q0 -90 8 -109.5t28 -31t76 -11.5h230q115 0 167 16t100 63q62 62 127 187h40l-117 -340h-1045zM524 1452l105 345h224l-295 -345h-34z" />
<glyph unicode="&#xca;" horiz-adv-x="1251" d="M42 0v37h48q48 0 91 23q32 16 43.5 48t11.5 131v881q0 129 -26 159q-36 40 -120 40h-48v37h1045l15 -297h-39q-21 107 -46.5 147t-75.5 61q-40 15 -141 15h-372v-536h298q116 0 155 35q52 46 58 162h37v-472h-37q-14 99 -28 127q-18 35 -59 55t-126 20h-298v-447 q0 -90 8 -109.5t28 -31t76 -11.5h230q115 0 167 16t100 63q62 62 127 187h40l-117 -340h-1045zM348 1462l189 331h184l190 -331h-31l-273 213l-229 -213h-30z" />
<glyph unicode="&#xcb;" horiz-adv-x="1251" d="M42 0v37h48q48 0 91 23q32 16 43.5 48t11.5 131v881q0 129 -26 159q-36 40 -120 40h-48v37h1045l15 -297h-39q-21 107 -46.5 147t-75.5 61q-40 15 -141 15h-372v-536h298q116 0 155 35q52 46 58 162h37v-472h-37q-14 99 -28 127q-18 35 -59 55t-126 20h-298v-447 q0 -90 8 -109.5t28 -31t76 -11.5h230q115 0 167 16t100 63q62 62 127 187h40l-117 -340h-1045zM344 1599q0 45 31.5 77t76.5 32q46 0 77.5 -32t31.5 -77t-32 -76.5t-76 -31.5q-45 0 -77 31.5t-32 76.5zM696 1599q0 45 32 77t77 32t76.5 -32t31.5 -77t-31.5 -76.5 t-76.5 -31.5t-77 31.5t-32 76.5z" />
<glyph unicode="&#xcc;" horiz-adv-x="682" d="M51 0v37h48q84 0 122 49q24 32 24 154v876q0 103 -13 136q-10 25 -41 43q-44 24 -92 24h-48v37h581v-37h-49q-83 0 -121 -49q-25 -32 -25 -154v-876q0 -103 13 -136q10 -25 42 -43q43 -24 91 -24h49v-37h-581zM119 1797h223l106 -345h-35z" />
<glyph unicode="&#xcd;" horiz-adv-x="682" d="M51 0v37h48q84 0 122 49q24 32 24 154v876q0 103 -13 136q-10 25 -41 43q-44 24 -92 24h-48v37h581v-37h-49q-83 0 -121 -49q-25 -32 -25 -154v-876q0 -103 13 -136q10 -25 42 -43q43 -24 91 -24h49v-37h-581zM236 1452l105 345h224l-295 -345h-34z" />
<glyph unicode="&#xce;" horiz-adv-x="682" d="M51 0v37h48q84 0 122 49q24 32 24 154v876q0 103 -13 136q-10 25 -41 43q-44 24 -92 24h-48v37h581v-37h-49q-83 0 -121 -49q-25 -32 -25 -154v-876q0 -103 13 -136q10 -25 42 -43q43 -24 91 -24h49v-37h-581zM60 1462l189 331h184l190 -331h-31l-273 213l-229 -213h-30z " />
<glyph unicode="&#xcf;" horiz-adv-x="682" d="M51 0v37h48q84 0 122 49q24 32 24 154v876q0 103 -13 136q-10 25 -41 43q-44 24 -92 24h-48v37h581v-37h-49q-83 0 -121 -49q-25 -32 -25 -154v-876q0 -103 13 -136q10 -25 42 -43q43 -24 91 -24h49v-37h-581zM56 1599q0 45 31.5 77t76.5 32q46 0 77.5 -32t31.5 -77 t-32 -76.5t-76 -31.5q-45 0 -77 31.5t-32 76.5zM408 1599q0 45 32 77t77 32t76.5 -32t31.5 -77t-31.5 -76.5t-76.5 -31.5t-77 31.5t-32 76.5z" />
<glyph unicode="&#xd0;" horiz-adv-x="1479" d="M35 0v37h51q86 0 123 56q21 32 21 147v438h-195v74h195v364q0 127 -28 159q-39 44 -116 44h-51v37h552q315 0 466 -71.5t249 -229t98 -368.5q0 -287 -183.5 -487t-576.5 -200h-605zM423 100q127 -28 213 -28q231 0 384 163t153 442q0 281 -153 443t-392 162 q-90 0 -205 -29v-501h393v-74h-393v-578z" />
<glyph unicode="&#xd1;" horiz-adv-x="1479" d="M-27 1319v37h368l829 -1017v782q0 125 -28 156q-37 42 -117 42h-47v37h472v-37h-48q-86 0 -122 -52q-22 -32 -22 -146v-1143h-36l-894 1092v-835q0 -125 27 -156q38 -42 117 -42h48v-37h-472v37h47q87 0 123 52q22 32 22 146v943q-59 69 -89.5 91t-89.5 41q-29 9 -88 9z M416 1465q4 137 57 198t131 61q41 0 75 -13q45 -17 127.5 -71.5t122.5 -54.5q32 0 56.5 27t38.5 112h31q1 -93 -24.5 -147.5t-72 -85t-93.5 -30.5q-79 0 -196 80q-63 43 -85 52t-43 9q-41 0 -65 -36q-11 -17 -28 -101h-32z" />
<glyph unicode="&#xd2;" horiz-adv-x="1479" d="M72 683q0 323 220 527q191 177 457 177q264 0 457.5 -200.5t193.5 -500.5q0 -309 -195 -513t-472 -204q-280 0 -470.5 199t-190.5 515zM301 687q0 -332 142 -511q109 -136 288 -136q191 0 315.5 149t124.5 470q0 348 -137 519q-110 136 -304 136q-182 0 -292 -135 q-137 -168 -137 -492zM511 1797h223l106 -345h-35z" />
<glyph unicode="&#xd3;" horiz-adv-x="1479" d="M72 683q0 323 220 527q191 177 457 177q264 0 457.5 -200.5t193.5 -500.5q0 -309 -195 -513t-472 -204q-280 0 -470.5 199t-190.5 515zM301 687q0 -332 142 -511q109 -136 288 -136q191 0 315.5 149t124.5 470q0 348 -137 519q-110 136 -304 136q-182 0 -292 -135 q-137 -168 -137 -492zM628 1452l105 345h224l-295 -345h-34z" />
<glyph unicode="&#xd4;" horiz-adv-x="1479" d="M72 683q0 323 220 527q191 177 457 177q264 0 457.5 -200.5t193.5 -500.5q0 -309 -195 -513t-472 -204q-280 0 -470.5 199t-190.5 515zM301 687q0 -332 142 -511q109 -136 288 -136q191 0 315.5 149t124.5 470q0 348 -137 519q-110 136 -304 136q-182 0 -292 -135 q-137 -168 -137 -492zM452 1462l189 331h184l190 -331h-31l-273 213l-229 -213h-30z" />
<glyph unicode="&#xd5;" horiz-adv-x="1479" d="M72 683q0 323 220 527q191 177 457 177q264 0 457.5 -200.5t193.5 -500.5q0 -309 -195 -513t-472 -204q-280 0 -470.5 199t-190.5 515zM301 687q0 -332 142 -511q109 -136 288 -136q191 0 315.5 149t124.5 470q0 348 -137 519q-110 136 -304 136q-182 0 -292 -135 q-137 -168 -137 -492zM414 1465q4 137 57 198t131 61q41 0 75 -13q45 -17 127.5 -71.5t122.5 -54.5q32 0 56.5 27t38.5 112h31q1 -93 -24.5 -147.5t-72 -85t-93.5 -30.5q-79 0 -196 80q-63 43 -85 52t-43 9q-41 0 -65 -36q-11 -17 -28 -101h-32z" />
<glyph unicode="&#xd6;" horiz-adv-x="1479" d="M72 683q0 323 220 527q191 177 457 177q264 0 457.5 -200.5t193.5 -500.5q0 -309 -195 -513t-472 -204q-280 0 -470.5 199t-190.5 515zM301 687q0 -332 142 -511q109 -136 288 -136q191 0 315.5 149t124.5 470q0 348 -137 519q-110 136 -304 136q-182 0 -292 -135 q-137 -168 -137 -492zM448 1599q0 45 31.5 77t76.5 32q46 0 77.5 -32t31.5 -77t-32 -76.5t-76 -31.5q-45 0 -77 31.5t-32 76.5zM800 1599q0 45 32 77t77 32t76.5 -32t31.5 -77t-31.5 -76.5t-76.5 -31.5t-77 31.5t-32 76.5z" />
<glyph unicode="&#xd7;" horiz-adv-x="1155" d="M165 328l353 353l-352 352l58 58l352 -352l352 352l56 -57l-352 -352l354 -354l-57 -58l-354 354l-353 -353z" />
<glyph unicode="&#xd8;" horiz-adv-x="1479" d="M73 692q0 294 196 494.5t472 200.5q227 0 406 -149l131 162l58 -44l-133 -167q104 -113 151 -229t47 -273q0 -343 -244 -555q-188 -163 -413 -163q-103 0 -216.5 37.5t-197.5 105.5l-129 -159l-59 47l132 164q-201 207 -201 528zM302 697q0 -231 73 -408l688 846 q-116 181 -327 181q-93 0 -147 -22q-75 -30 -134 -96q-79 -88 -116 -215t-37 -286zM416 217q54 -82 116 -120q89 -56 198 -56q105 0 172 31.5t125.5 97.5t100.5 186t42 300q0 123 -18 228q-14 77 -51 179z" />
<glyph unicode="&#xd9;" horiz-adv-x="1479" d="M11 1319v37h586v-37h-52q-84 0 -120 -53q-25 -36 -25 -150v-591q0 -79 14.5 -181t52.5 -159t109.5 -94t175.5 -37q133 0 238 58t143.5 148.5t38.5 306.5v549q0 127 -28 159q-39 44 -116 44h-51v37h480v-37h-51q-80 0 -123 -67q-21 -31 -21 -144v-550q0 -204 -40.5 -316.5 t-159 -193t-322.5 -80.5q-222 0 -337 77t-163 207q-32 89 -32 334v530q0 125 -34.5 164t-111.5 39h-51zM562 1797h223l106 -345h-35z" />
<glyph unicode="&#xda;" horiz-adv-x="1479" d="M11 1319v37h586v-37h-52q-84 0 -120 -53q-25 -36 -25 -150v-591q0 -79 14.5 -181t52.5 -159t109.5 -94t175.5 -37q133 0 238 58t143.5 148.5t38.5 306.5v549q0 127 -28 159q-39 44 -116 44h-51v37h480v-37h-51q-80 0 -123 -67q-21 -31 -21 -144v-550q0 -204 -40.5 -316.5 t-159 -193t-322.5 -80.5q-222 0 -337 77t-163 207q-32 89 -32 334v530q0 125 -34.5 164t-111.5 39h-51zM631 1452l105 345h224l-295 -345h-34z" />
<glyph unicode="&#xdb;" horiz-adv-x="1479" d="M11 1319v37h586v-37h-52q-84 0 -120 -53q-25 -36 -25 -150v-591q0 -79 14.5 -181t52.5 -159t109.5 -94t175.5 -37q133 0 238 58t143.5 148.5t38.5 306.5v549q0 127 -28 159q-39 44 -116 44h-51v37h480v-37h-51q-80 0 -123 -67q-21 -31 -21 -144v-550q0 -204 -40.5 -316.5 t-159 -193t-322.5 -80.5q-222 0 -337 77t-163 207q-32 89 -32 334v530q0 125 -34.5 164t-111.5 39h-51zM502 1462l189 331h184l190 -331h-31l-273 213l-229 -213h-30z" />
<glyph unicode="&#xdc;" horiz-adv-x="1479" d="M11 1319v37h586v-37h-52q-84 0 -120 -53q-25 -36 -25 -150v-591q0 -79 14.5 -181t52.5 -159t109.5 -94t175.5 -37q133 0 238 58t143.5 148.5t38.5 306.5v549q0 127 -28 159q-39 44 -116 44h-51v37h480v-37h-51q-80 0 -123 -67q-21 -31 -21 -144v-550q0 -204 -40.5 -316.5 t-159 -193t-322.5 -80.5q-222 0 -337 77t-163 207q-32 89 -32 334v530q0 125 -34.5 164t-111.5 39h-51zM499 1599q0 45 31.5 77t76.5 32q46 0 77.5 -32t31.5 -77t-32 -76.5t-76 -31.5q-45 0 -77 31.5t-32 76.5zM851 1599q0 45 32 77t77 32t76.5 -32t31.5 -77t-31.5 -76.5 t-76.5 -31.5t-77 31.5t-32 76.5z" />
<glyph unicode="&#xdd;" horiz-adv-x="1479" d="M19 1319v37h580v-37h-30q-47 0 -86.5 -22t-39.5 -66q0 -36 61 -130l283 -437l266 418q60 94 60 140q0 28 -14.5 50t-41.5 34.5t-81 12.5v37h473v-37h-26q-26 0 -76 -23t-91 -66t-101 -140l-327 -515v-340q0 -125 28 -156q38 -42 120 -42h44v-37h-576v37h48q86 0 122 52 q22 32 22 146v321l-372 568q-66 100 -89.5 125t-97.5 60q-20 10 -58 10zM667 1452l105 345h224l-295 -345h-34z" />
<glyph unicode="&#xde;" horiz-adv-x="1139" d="M36 0v37h38q93 0 133 56q20 28 20 147v868q0 114 -11 140.5t-48.5 48.5t-91.5 22h-40v37h578v-37h-40q-44 0 -94 -23q-30 -14 -45 -49t-15 -134v-65h74q150 0 224 -12q108 -19 179.5 -64.5t117 -121.5t45.5 -170q0 -77 -29 -142.5t-78 -112.5t-111 -75t-161 -41 q-36 -5 -191 -5h-70v-61q0 -129 34.5 -167.5t118.5 -38.5h41v-37h-578zM420 375h44q122 0 190 28q90 38 133 109t43 165q0 75 -31 138t-81.5 98.5t-112.5 48.5q-40 8 -137 8h-48v-595z" />
<glyph unicode="&#xdf;" d="M35 0v36q60 5 85.5 21t36 44.5t10.5 123.5v741q0 249 93 353q93 103 264 103q162 0 257 -91.5t95 -233.5q0 -106 -54 -180q-40 -54 -137 -96q135 -40 204 -139t69 -260q0 -174 -91 -304.5t-244 -130.5q-87 0 -139.5 48t-52.5 114q0 42 21.5 64.5t57.5 22.5 q39 0 60.5 -21.5t21.5 -57.5q0 -16 -4 -33q-6 -24 -6 -35q0 -18 15 -32t41 -14q60 0 99 53q51 70 51 216q0 208 -73.5 330t-221.5 132v57q106 0 160.5 62.5t54.5 208.5q0 134 -52.5 194t-139.5 60q-81 0 -132 -64t-51 -255v-1037h-298z" />
<glyph unicode="&#xe0;" horiz-adv-x="909" d="M73 217q0 67 30 116q41 68 142.5 128t337.5 146v36q0 137 -43.5 188t-126.5 51q-63 0 -100 -34q-38 -34 -38 -78l2 -58q0 -46 -23.5 -71t-61.5 -25q-37 0 -60.5 26t-23.5 71q0 86 88 158t247 72q122 0 200 -41q59 -31 87 -97q18 -43 18 -176v-311q0 -131 5 -160.5 t16.5 -39.5t26.5 -10q16 0 28 7q21 13 81 73v-56q-112 -150 -214 -150q-49 0 -78 34t-30 116q-141 -109 -177 -126q-54 -25 -115 -25q-95 0 -156.5 65t-61.5 171zM241 264q0 -72 43 -119.5t99 -47.5q76 0 200 100v349q-151 -60 -195 -85q-79 -44 -113 -92t-34 -105z M260 1390h223l106 -345h-35z" />
<glyph unicode="&#xe1;" horiz-adv-x="909" d="M73 217q0 67 30 116q41 68 142.5 128t337.5 146v36q0 137 -43.5 188t-126.5 51q-63 0 -100 -34q-38 -34 -38 -78l2 -58q0 -46 -23.5 -71t-61.5 -25q-37 0 -60.5 26t-23.5 71q0 86 88 158t247 72q122 0 200 -41q59 -31 87 -97q18 -43 18 -176v-311q0 -131 5 -160.5 t16.5 -39.5t26.5 -10q16 0 28 7q21 13 81 73v-56q-112 -150 -214 -150q-49 0 -78 34t-30 116q-141 -109 -177 -126q-54 -25 -115 -25q-95 0 -156.5 65t-61.5 171zM241 264q0 -72 43 -119.5t99 -47.5q76 0 200 100v349q-151 -60 -195 -85q-79 -44 -113 -92t-34 -105z M353 1045l105 345h224l-295 -345h-34z" />
<glyph unicode="&#xe2;" horiz-adv-x="909" d="M73 217q0 67 30 116q41 68 142.5 128t337.5 146v36q0 137 -43.5 188t-126.5 51q-63 0 -100 -34q-38 -34 -38 -78l2 -58q0 -46 -23.5 -71t-61.5 -25q-37 0 -60.5 26t-23.5 71q0 86 88 158t247 72q122 0 200 -41q59 -31 87 -97q18 -43 18 -176v-311q0 -131 5 -160.5 t16.5 -39.5t26.5 -10q16 0 28 7q21 13 81 73v-56q-112 -150 -214 -150q-49 0 -78 34t-30 116q-141 -109 -177 -126q-54 -25 -115 -25q-95 0 -156.5 65t-61.5 171zM177 1054l189 331h184l190 -331h-31l-273 213l-229 -213h-30zM241 264q0 -72 43 -119.5t99 -47.5 q76 0 200 100v349q-151 -60 -195 -85q-79 -44 -113 -92t-34 -105z" />
<glyph unicode="&#xe3;" horiz-adv-x="909" d="M73 217q0 67 30 116q41 68 142.5 128t337.5 146v36q0 137 -43.5 188t-126.5 51q-63 0 -100 -34q-38 -34 -38 -78l2 -58q0 -46 -23.5 -71t-61.5 -25q-37 0 -60.5 26t-23.5 71q0 86 88 158t247 72q122 0 200 -41q59 -31 87 -97q18 -43 18 -176v-311q0 -131 5 -160.5 t16.5 -39.5t26.5 -10q16 0 28 7q21 13 81 73v-56q-112 -150 -214 -150q-49 0 -78 34t-30 116q-141 -109 -177 -126q-54 -25 -115 -25q-95 0 -156.5 65t-61.5 171zM139 1097q4 137 57 198t131 61q41 0 75 -13q45 -17 127.5 -71.5t122.5 -54.5q32 0 56.5 27t38.5 112h31 q1 -93 -24.5 -147.5t-72 -85t-93.5 -30.5q-79 0 -196 80q-63 43 -85 52t-43 9q-41 0 -65 -36q-11 -17 -28 -101h-32zM241 264q0 -72 43 -119.5t99 -47.5q76 0 200 100v349q-151 -60 -195 -85q-79 -44 -113 -92t-34 -105z" />
<glyph unicode="&#xe4;" horiz-adv-x="909" d="M73 217q0 67 30 116q41 68 142.5 128t337.5 146v36q0 137 -43.5 188t-126.5 51q-63 0 -100 -34q-38 -34 -38 -78l2 -58q0 -46 -23.5 -71t-61.5 -25q-37 0 -60.5 26t-23.5 71q0 86 88 158t247 72q122 0 200 -41q59 -31 87 -97q18 -43 18 -176v-311q0 -131 5 -160.5 t16.5 -39.5t26.5 -10q16 0 28 7q21 13 81 73v-56q-112 -150 -214 -150q-49 0 -78 34t-30 116q-141 -109 -177 -126q-54 -25 -115 -25q-95 0 -156.5 65t-61.5 171zM173 1228q0 45 31.5 77t76.5 32q46 0 77.5 -32t31.5 -77t-32 -76.5t-76 -31.5q-45 0 -77 31.5t-32 76.5z M241 264q0 -72 43 -119.5t99 -47.5q76 0 200 100v349q-151 -60 -195 -85q-79 -44 -113 -92t-34 -105zM525 1228q0 45 32 77t77 32t76.5 -32t31.5 -77t-31.5 -76.5t-76.5 -31.5t-77 31.5t-32 76.5z" />
<glyph unicode="&#xe5;" horiz-adv-x="909" d="M73 217q0 67 30 116q41 68 142.5 128t337.5 146v36q0 137 -43.5 188t-126.5 51q-63 0 -100 -34q-38 -34 -38 -78l2 -58q0 -46 -23.5 -71t-61.5 -25q-37 0 -60.5 26t-23.5 71q0 86 88 158t247 72q122 0 200 -41q59 -31 87 -97q18 -43 18 -176v-311q0 -131 5 -160.5 t16.5 -39.5t26.5 -10q16 0 28 7q21 13 81 73v-56q-112 -150 -214 -150q-49 0 -78 34t-30 116q-141 -109 -177 -126q-54 -25 -115 -25q-95 0 -156.5 65t-61.5 171zM241 264q0 -72 43 -119.5t99 -47.5q76 0 200 100v349q-151 -60 -195 -85q-79 -44 -113 -92t-34 -105z M267 1235q0 79 55.5 135t135.5 56t136 -56t56 -135q0 -80 -56 -136t-136 -56q-79 0 -135 56t-56 136zM336 1235q0 -50 35.5 -86t86.5 -36t86.5 36t35.5 86q0 51 -35.5 86.5t-86.5 35.5t-86.5 -35.5t-35.5 -86.5z" />
<glyph unicode="&#xe6;" horiz-adv-x="1366" d="M73 201q0 87 43.5 148t170.5 126q156 80 276 122v92q0 108 -40 152.5t-107 44.5q-66 0 -103 -32q-38 -33 -38 -73q0 -84 -8.5 -109t-26.5 -38t-45 -13q-39 0 -60 23q-30 32 -30 72q0 52 36.5 104t115 88t183.5 36q124 0 187 -35.5t83 -87.5q48 60 101 87q71 36 168 36 q144 0 234.5 -97t90.5 -280h-570q-1 -51 -1 -74q0 -201 72 -286t184 -85q97 0 176 61q50 39 107 159l32 -22q-36 -162 -155 -270q-86 -78 -215 -78q-108 0 -185 47q-36 23 -111 113q-12 -9 -55 -43q-58 -47 -78 -58q-47 -27 -100 -43t-109 -16q-94 0 -158.5 66.5 t-64.5 162.5zM241 258q0 -79 47.5 -129t113.5 -50q39 0 82.5 20.5t125.5 84.5q-21 45 -34 117.5t-13 141.5v89q-135 -42 -248 -128q-74 -57 -74 -146zM734 632h378q-2 126 -53.5 183.5t-131.5 57.5t-135.5 -62.5t-57.5 -178.5z" />
<glyph unicode="&#xe7;" horiz-adv-x="909" d="M70 457q0 216 128.5 351t308.5 135q135 0 222 -71.5t87 -148.5q0 -38 -24.5 -61.5t-68.5 -23.5q-59 0 -89 38q-17 21 -22.5 80t-40.5 90q-35 30 -97 30q-100 0 -161 -74q-81 -98 -81 -259q0 -164 80.5 -289.5t217.5 -125.5q98 0 176 67q55 46 107 167l29 -14 q-37 -181 -145 -278.5t-239 -97.5q-156 0 -272 131t-116 354zM296 -340q28 -4 48 -4q51 0 86 33.5t35 76.5q0 30 -23 52t-57 22q-10 0 -26 -2l111 178h60l-50 -79q63 -16 94 -54t31 -92q0 -72 -60 -126.5t-155 -54.5q-37 0 -94 7v43z" />
<glyph unicode="&#xe8;" horiz-adv-x="909" d="M76 446q0 235 120.5 366.5t302.5 131.5q154 0 253 -101.5t99 -271.5h-633q-1 -204 99 -320t235 -116q90 0 156.5 49.5t111.5 169.5l31 -20q-21 -137 -122 -249.5t-253 -112.5q-165 0 -282.5 128.5t-117.5 345.5zM218 629h424q-5 88 -21 124q-25 56 -74.5 88t-103.5 32 q-83 0 -148.5 -64.5t-76.5 -179.5zM285 1390h223l106 -345h-35z" />
<glyph unicode="&#xe9;" horiz-adv-x="909" d="M76 446q0 235 120.5 366.5t302.5 131.5q154 0 253 -101.5t99 -271.5h-633q-1 -204 99 -320t235 -116q90 0 156.5 49.5t111.5 169.5l31 -20q-21 -137 -122 -249.5t-253 -112.5q-165 0 -282.5 128.5t-117.5 345.5zM218 629h424q-5 88 -21 124q-25 56 -74.5 88t-103.5 32 q-83 0 -148.5 -64.5t-76.5 -179.5zM366 1045l105 345h224l-295 -345h-34z" />
<glyph unicode="&#xea;" horiz-adv-x="909" d="M76 446q0 235 120.5 366.5t302.5 131.5q154 0 253 -101.5t99 -271.5h-633q-1 -204 99 -320t235 -116q90 0 156.5 49.5t111.5 169.5l31 -20q-21 -137 -122 -249.5t-253 -112.5q-165 0 -282.5 128.5t-117.5 345.5zM214 1054l189 331h184l190 -331h-31l-273 213l-229 -213 h-30zM218 629h424q-5 88 -21 124q-25 56 -74.5 88t-103.5 32q-83 0 -148.5 -64.5t-76.5 -179.5z" />
<glyph unicode="&#xeb;" horiz-adv-x="909" d="M76 446q0 235 120.5 366.5t302.5 131.5q154 0 253 -101.5t99 -271.5h-633q-1 -204 99 -320t235 -116q90 0 156.5 49.5t111.5 169.5l31 -20q-21 -137 -122 -249.5t-253 -112.5q-165 0 -282.5 128.5t-117.5 345.5zM210 1227q0 45 31.5 77t76.5 32q46 0 77.5 -32t31.5 -77 t-32 -76.5t-76 -31.5q-45 0 -77 31.5t-32 76.5zM218 629h424q-5 88 -21 124q-25 56 -74.5 88t-103.5 32q-83 0 -148.5 -64.5t-76.5 -179.5zM562 1227q0 45 32 77t77 32t76.5 -32t31.5 -77t-31.5 -76.5t-76.5 -31.5t-77 31.5t-32 76.5z" />
<glyph unicode="&#xec;" horiz-adv-x="569" d="M60 831l276 112h43v-736q0 -86 13 -114.5t37.5 -42.5t89.5 -14v-36h-445v36q67 0 90 13t36.5 43t13.5 115v353q0 149 -9 193q-7 32 -22 44.5t-41 12.5q-28 0 -68 -15zM77 1390h223l106 -345h-35z" />
<glyph unicode="&#xed;" horiz-adv-x="569" d="M60 831l276 112h43v-736q0 -86 13 -114.5t37.5 -42.5t89.5 -14v-36h-445v36q67 0 90 13t36.5 43t13.5 115v353q0 149 -9 193q-7 32 -22 44.5t-41 12.5q-28 0 -68 -15zM169 1045l105 345h224l-295 -345h-34z" />
<glyph unicode="&#xee;" horiz-adv-x="569" d="M13 1054l189 331h184l190 -331h-31l-273 213l-229 -213h-30zM60 831l276 112h43v-736q0 -86 13 -114.5t37.5 -42.5t89.5 -14v-36h-445v36q67 0 90 13t36.5 43t13.5 115v353q0 149 -9 193q-7 32 -22 44.5t-41 12.5q-28 0 -68 -15z" />
<glyph unicode="&#xef;" horiz-adv-x="569" d="M2 1227q0 45 31.5 77t76.5 32q46 0 77.5 -32t31.5 -77t-32 -76.5t-76 -31.5q-45 0 -77 31.5t-32 76.5zM60 831l276 112h43v-736q0 -86 13 -114.5t37.5 -42.5t89.5 -14v-36h-445v36q67 0 90 13t36.5 43t13.5 115v353q0 149 -9 193q-7 32 -22 44.5t-41 12.5q-28 0 -68 -15z M354 1227q0 45 32 77t77 32t76.5 -32t31.5 -77t-31.5 -76.5t-76.5 -31.5t-77 31.5t-32 76.5z" />
<glyph unicode="&#xf0;" d="M68 441q0 211 138 365q118 129 282 129q49 0 88 -13q31 -10 81 -46q-80 165 -188 293l-247 -135l-30 55l233 132q-66 67 -99.5 94.5t-88.5 63.5l27 43q120 -60 247 -155l249 139l34 -55l-229 -130q190 -165 287 -363.5t97 -383.5q0 -139 -57.5 -255.5t-161.5 -181.5 t-231 -65q-179 0 -305 133.5t-126 335.5zM253 518q0 -136 40.5 -250.5t109.5 -170t144 -55.5q91 0 154 79t63 256q0 225 -79 361t-206 136q-96 0 -161 -81t-65 -275z" />
<glyph unicode="&#xf1;" d="M12 831l276 112h43v-194q161 194 307 194q75 0 129 -37.5t86 -123.5q22 -60 22 -184v-391q0 -87 14 -118q11 -25 35.5 -39t90.5 -14v-36h-453v36h19q64 0 89.5 19.5t35.5 57.5q4 15 4 94v375q0 125 -32.5 181.5t-109.5 56.5q-119 0 -237 -130v-483q0 -93 11 -115 q14 -29 38.5 -42.5t99.5 -13.5v-36h-453v36h20q70 0 94.5 35.5t24.5 135.5v340q0 165 -7.5 201t-23 49t-41.5 13q-28 0 -67 -15zM193 1097q4 137 57 198t131 61q41 0 75 -13q45 -17 127.5 -71.5t122.5 -54.5q32 0 56.5 27t38.5 112h31q1 -93 -24.5 -147.5t-72 -85 t-93.5 -30.5q-79 0 -196 80q-63 43 -85 52t-43 9q-41 0 -65 -36q-11 -17 -28 -101h-32z" />
<glyph unicode="&#xf2;" d="M69 449q0 126 62.5 250.5t164.5 184t216 59.5q208 0 334 -158q107 -135 107 -310q0 -123 -59 -249t-162.5 -190t-230.5 -64q-207 0 -329 165q-103 139 -103 312zM255 533q0 -200 79.5 -345t209.5 -145q97 0 160 80t63 275q0 244 -105 384q-71 96 -181 96 q-53 0 -106.5 -31.5t-86.5 -110.5t-33 -203zM301 1390h223l106 -345h-35z" />
<glyph unicode="&#xf3;" d="M69 449q0 126 62.5 250.5t164.5 184t216 59.5q208 0 334 -158q107 -135 107 -310q0 -123 -59 -249t-162.5 -190t-230.5 -64q-207 0 -329 165q-103 139 -103 312zM255 533q0 -200 79.5 -345t209.5 -145q97 0 160 80t63 275q0 244 -105 384q-71 96 -181 96 q-53 0 -106.5 -31.5t-86.5 -110.5t-33 -203zM394 1045l105 345h224l-295 -345h-34z" />
<glyph unicode="&#xf4;" d="M69 449q0 126 62.5 250.5t164.5 184t216 59.5q208 0 334 -158q107 -135 107 -310q0 -123 -59 -249t-162.5 -190t-230.5 -64q-207 0 -329 165q-103 139 -103 312zM242 1054l189 331h184l190 -331h-31l-273 213l-229 -213h-30zM255 533q0 -200 79.5 -345t209.5 -145 q97 0 160 80t63 275q0 244 -105 384q-71 96 -181 96q-53 0 -106.5 -31.5t-86.5 -110.5t-33 -203z" />
<glyph unicode="&#xf5;" d="M69 449q0 126 62.5 250.5t164.5 184t216 59.5q208 0 334 -158q107 -135 107 -310q0 -123 -59 -249t-162.5 -190t-230.5 -64q-207 0 -329 165q-103 139 -103 312zM192 1097q4 137 57 198t131 61q41 0 75 -13q45 -17 127.5 -71.5t122.5 -54.5q32 0 56.5 27t38.5 112h31 q1 -93 -24.5 -147.5t-72 -85t-93.5 -30.5q-79 0 -196 80q-63 43 -85 52t-43 9q-41 0 -65 -36q-11 -17 -28 -101h-32zM255 533q0 -200 79.5 -345t209.5 -145q97 0 160 80t63 275q0 244 -105 384q-71 96 -181 96q-53 0 -106.5 -31.5t-86.5 -110.5t-33 -203z" />
<glyph unicode="&#xf6;" d="M69 449q0 126 62.5 250.5t164.5 184t216 59.5q208 0 334 -158q107 -135 107 -310q0 -123 -59 -249t-162.5 -190t-230.5 -64q-207 0 -329 165q-103 139 -103 312zM226 1227q0 45 31.5 77t76.5 32q46 0 77.5 -32t31.5 -77t-32 -76.5t-76 -31.5q-45 0 -77 31.5t-32 76.5z M255 533q0 -200 79.5 -345t209.5 -145q97 0 160 80t63 275q0 244 -105 384q-71 96 -181 96q-53 0 -106.5 -31.5t-86.5 -110.5t-33 -203zM578 1227q0 45 32 77t77 32t76.5 -32t31.5 -77t-31.5 -76.5t-76.5 -31.5t-77 31.5t-32 76.5z" />
<glyph unicode="&#xf7;" horiz-adv-x="1124" d="M23 640v82h1078v-82h-1078zM474 367q0 36 25.5 62t62.5 26t62.5 -26t25.5 -62t-26 -62t-62 -26t-62 26t-26 62zM474 988q0 36 25.5 61.5t62.5 25.5q36 0 61.5 -25.5t25.5 -61.5t-25.5 -61.5t-62.5 -25.5q-36 0 -61.5 25.5t-25.5 61.5z" />
<glyph unicode="&#xf8;" d="M39 -24l141 159q-50 62 -78 152t-28 168q0 119 60.5 240t162.5 184.5t224 63.5q82 0 148.5 -26t136.5 -85l133 147l46 -43l-135 -152q106 -135 106 -312q0 -118 -58 -244.5t-160.5 -191t-230.5 -64.5q-83 0 -147 25.5t-139 88.5l-135 -153zM260 532q0 -124 39 -262 l405 449q-51 89 -100.5 123.5t-115.5 34.5q-98 0 -163 -80t-65 -265zM329 204q51 -92 100 -126.5t118 -34.5q99 0 161.5 80t62.5 279q0 121 -39 252z" />
<glyph unicode="&#xf9;" d="M2 879v37h321v-613q0 -128 44.5 -168t107.5 -40q43 0 97.5 27t129.5 103v519q0 78 -28.5 105.5t-118.5 29.5v37h312v-555q0 -159 7.5 -194.5t24 -49.5t38.5 -14q31 0 70 17l14 -35l-274 -113h-45v194q-118 -128 -180 -161t-131 -33q-77 0 -133.5 44.5t-78.5 114.5 t-22 198v409q0 65 -14 90t-41.5 38.5t-99.5 12.5zM307 1390h223l106 -345h-35z" />
<glyph unicode="&#xfa;" d="M2 879v37h321v-613q0 -128 44.5 -168t107.5 -40q43 0 97.5 27t129.5 103v519q0 78 -28.5 105.5t-118.5 29.5v37h312v-555q0 -159 7.5 -194.5t24 -49.5t38.5 -14q31 0 70 17l14 -35l-274 -113h-45v194q-118 -128 -180 -161t-131 -33q-77 0 -133.5 44.5t-78.5 114.5 t-22 198v409q0 65 -14 90t-41.5 38.5t-99.5 12.5zM370 1045l105 345h224l-295 -345h-34z" />
<glyph unicode="&#xfb;" d="M2 879v37h321v-613q0 -128 44.5 -168t107.5 -40q43 0 97.5 27t129.5 103v519q0 78 -28.5 105.5t-118.5 29.5v37h312v-555q0 -159 7.5 -194.5t24 -49.5t38.5 -14q31 0 70 17l14 -35l-274 -113h-45v194q-118 -128 -180 -161t-131 -33q-77 0 -133.5 44.5t-78.5 114.5 t-22 198v409q0 65 -14 90t-41.5 38.5t-99.5 12.5zM234 1054l189 331h184l190 -331h-31l-273 213l-229 -213h-30z" />
<glyph unicode="&#xfc;" d="M2 879v37h321v-613q0 -128 44.5 -168t107.5 -40q43 0 97.5 27t129.5 103v519q0 78 -28.5 105.5t-118.5 29.5v37h312v-555q0 -159 7.5 -194.5t24 -49.5t38.5 -14q31 0 70 17l14 -35l-274 -113h-45v194q-118 -128 -180 -161t-131 -33q-77 0 -133.5 44.5t-78.5 114.5 t-22 198v409q0 65 -14 90t-41.5 38.5t-99.5 12.5zM226 1227q0 45 31.5 77t76.5 32q46 0 77.5 -32t31.5 -77t-32 -76.5t-76 -31.5q-45 0 -77 31.5t-32 76.5zM578 1227q0 45 32 77t77 32t76.5 -32t31.5 -77t-31.5 -76.5t-76.5 -31.5t-77 31.5t-32 76.5z" />
<glyph unicode="&#xfd;" d="M12 879v37h427v-37h-21q-45 0 -67.5 -19.5t-22.5 -48.5q0 -39 33 -108l223 -462l205 506q17 41 17 81q0 18 -7 27q-8 11 -25 17.5t-60 6.5v37h298v-37q-37 -4 -57 -16t-44 -45q-9 -14 -34 -77l-373 -914q-54 -133 -141.5 -201t-168.5 -68q-59 0 -97 34t-38 78 q0 42 27.5 67.5t75.5 25.5q33 0 90 -22q40 -15 50 -15q30 0 65.5 31t71.5 120l65 159l-329 691q-15 31 -48 77q-25 35 -41 47q-23 16 -74 28zM403 1045l105 345h224l-295 -345h-34z" />
<glyph unicode="&#xfe;" d="M-7 -399l25 -1q55 -1 94 21q19 11 29.5 35.5t10.5 123.5v1349q0 89 -8 113.5t-25.5 36.5t-47.5 12q-24 0 -61 -15l-12 32l282 114h38v-697q71 121 142.5 169.5t150.5 48.5q138 0 230 -108q113 -132 113 -344q0 -237 -136 -392q-112 -127 -282 -127q-74 0 -128 21 q-40 15 -90 60v-279q0 -93 11.5 -118t40 -40t103.5 -15v-38h-480v38zM318 324q0 -111 9 -146q14 -58 68.5 -102t137.5 -44q100 0 162 78q81 102 81 287q0 210 -92 323q-64 78 -152 78q-48 0 -95 -24q-36 -18 -119 -108v-342z" />
<glyph unicode="&#xff;" d="M12 879v37h427v-37h-21q-45 0 -67.5 -19.5t-22.5 -48.5q0 -39 33 -108l223 -462l205 506q17 41 17 81q0 18 -7 27q-8 11 -25 17.5t-60 6.5v37h298v-37q-37 -4 -57 -16t-44 -45q-9 -14 -34 -77l-373 -914q-54 -133 -141.5 -201t-168.5 -68q-59 0 -97 34t-38 78 q0 42 27.5 67.5t75.5 25.5q33 0 90 -22q40 -15 50 -15q30 0 65.5 31t71.5 120l65 159l-329 691q-15 31 -48 77q-25 35 -41 47q-23 16 -74 28zM264 1228q0 45 31.5 77t76.5 32q46 0 77.5 -32t31.5 -77t-32 -76.5t-76 -31.5q-45 0 -77 31.5t-32 76.5zM616 1228q0 45 32 77 t77 32t76.5 -32t31.5 -77t-31.5 -76.5t-76.5 -31.5t-77 31.5t-32 76.5z" />
<glyph unicode="&#x152;" horiz-adv-x="1821" d="M75 676q0 258 141 455q169 237 493 237q23 0 194 -7q140 -5 267 -5h473l12 -298h-32q-24 118 -43 149q-25 40 -77 62q-33 13 -143 13h-256v-535h183q115 0 163 47.5t47 148.5h39v-472h-39q-9 123 -51 162.5t-159 39.5h-183v-448q0 -80 10 -104t33 -37q15 -8 77 -8h104 q120 0 167.5 13t98.5 59q75 68 129 192h40l-108 -340h-485q-141 0 -171 -1q-12 0 -167 -9q-108 -6 -145 -6q-169 0 -308.5 85.5t-221.5 250t-82 356.5zM305 668q0 -155 42 -301t135.5 -229t226.5 -83q76 0 122 25.5t63.5 71.5t17.5 188v702q0 130 -18.5 171.5t-53.5 61.5 q-50 29 -127 29q-124 0 -218.5 -73t-142 -223.5t-47.5 -339.5z" />
<glyph unicode="&#x153;" horiz-adv-x="1479" d="M67 443q0 229 123.5 364.5t299.5 135.5q107 0 186 -44t126 -114q59 85 124 122t159 37q147 0 239 -99t87 -272h-548q-2 -25 -2 -38q0 -94 33.5 -196t99.5 -152t145 -50q80 0 141.5 51t97.5 167l33 -17q-36 -193 -125.5 -279.5t-214.5 -86.5q-97 0 -165.5 47t-103.5 114 q-62 -80 -141.5 -120.5t-176.5 -40.5q-176 0 -296.5 128.5t-120.5 342.5zM254 539q0 -258 102 -406q62 -90 153 -90q89 0 147.5 74t58.5 261q0 233 -67.5 371.5t-194.5 138.5q-36 0 -85.5 -26.5t-76.5 -90.5q-37 -83 -37 -232zM863 638h351q1 70 -24 134q-18 48 -61 76.5 t-90 28.5q-67 0 -118.5 -60t-57.5 -179z" />
<glyph unicode="&#x178;" horiz-adv-x="1479" d="M19 1319v37h580v-37h-30q-47 0 -86.5 -22t-39.5 -66q0 -36 61 -130l283 -437l266 418q60 94 60 140q0 28 -14.5 50t-41.5 34.5t-81 12.5v37h473v-37h-26q-26 0 -76 -23t-91 -66t-101 -140l-327 -515v-340q0 -125 28 -156q38 -42 120 -42h44v-37h-576v37h48q86 0 122 52 q22 32 22 146v321l-372 568q-66 100 -89.5 125t-97.5 60q-20 10 -58 10zM475 1599q0 45 31.5 77t76.5 32q46 0 77.5 -32t31.5 -77t-32 -76.5t-76 -31.5q-45 0 -77 31.5t-32 76.5zM827 1599q0 45 32 77t77 32t76.5 -32t31.5 -77t-31.5 -76.5t-76.5 -31.5t-77 31.5t-32 76.5z " />
<glyph unicode="&#x2c6;" horiz-adv-x="682" d="M60 1054l189 331h184l190 -331h-31l-273 213l-229 -213h-30z" />
<glyph unicode="&#x2dc;" horiz-adv-x="682" d="M22 1097q4 137 57 198t131 61q41 0 75 -13q45 -17 127.5 -71.5t122.5 -54.5q32 0 56.5 27t38.5 112h31q1 -93 -24.5 -147.5t-72 -85t-93.5 -30.5q-79 0 -196 80q-63 43 -85 52t-43 9q-41 0 -65 -36q-11 -17 -28 -101h-32z" />
<glyph unicode="&#x2000;" horiz-adv-x="898" />
<glyph unicode="&#x2001;" horiz-adv-x="1797" />
<glyph unicode="&#x2002;" horiz-adv-x="898" />
<glyph unicode="&#x2003;" horiz-adv-x="1797" />
<glyph unicode="&#x2004;" horiz-adv-x="599" />
<glyph unicode="&#x2005;" horiz-adv-x="449" />
<glyph unicode="&#x2006;" horiz-adv-x="299" />
<glyph unicode="&#x2007;" horiz-adv-x="299" />
<glyph unicode="&#x2008;" horiz-adv-x="224" />
<glyph unicode="&#x2009;" horiz-adv-x="359" />
<glyph unicode="&#x200a;" horiz-adv-x="99" />
<glyph unicode="&#x2010;" horiz-adv-x="682" d="M83 384v151h517v-151h-517z" />
<glyph unicode="&#x2011;" horiz-adv-x="682" d="M83 384v151h517v-151h-517z" />
<glyph unicode="&#x2012;" horiz-adv-x="682" d="M83 384v151h517v-151h-517z" />
<glyph unicode="&#x2013;" d="M-18 453v73h1059v-73h-1059z" />
<glyph unicode="&#x2014;" horiz-adv-x="2048" d="M-19 453v74h2085v-74h-2085z" />
<glyph unicode="&#x2018;" horiz-adv-x="682" d="M185 1067q0 118 88 215q59 64 171 105v-43q-102 -62 -139 -115q-27 -39 -27 -92q0 -32 12 -47q11 -15 26 -15q10 0 28 7q27 9 44 9q40 0 71 -30t31 -75q0 -51 -31 -79q-43 -38 -100 -38q-68 0 -121 57t-53 141z" />
<glyph unicode="&#x2019;" horiz-adv-x="682" d="M193 1271q0 50 31 78q42 38 100 38q67 0 120.5 -56.5t53.5 -140.5q0 -118 -89 -215q-59 -64 -171 -106v47q103 61 140 114q26 38 26 91q0 31 -11 46q-12 15 -26 15q-11 0 -29 -7q-26 -9 -43 -9q-40 0 -71 30t-31 75z" />
<glyph unicode="&#x201a;" horiz-adv-x="682" d="M203 81q0 49 37.5 84t91.5 35q66 0 117.5 -57.5t51.5 -152.5q0 -103 -71.5 -191.5t-226.5 -139.5v44q103 34 159.5 105.5t56.5 151.5q0 19 -9 32q-7 9 -14 9q-11 0 -48 -20q-18 -9 -38 -9q-49 0 -78 29t-29 80z" />
<glyph unicode="&#x201c;" horiz-adv-x="909" d="M67 1073q0 100 66.5 186.5t192.5 127.5v-41q-88 -46 -126 -96t-38 -109q0 -35 10 -48q9 -14 22 -14t35 7.5t40 7.5q41 0 71.5 -30.5t30.5 -74.5q0 -48 -37 -82.5t-92 -34.5q-67 0 -121 58t-54 143zM546 1070q0 105 67 191.5t190 122.5v-38q-101 -58 -133 -104t-32 -108 q0 -28 11 -42t23 -14q11 0 33 8t44 8q41 0 71.5 -29.5t30.5 -72.5q0 -49 -38.5 -85t-94.5 -36q-66 0 -119 57t-53 142z" />
<glyph unicode="&#x201d;" horiz-adv-x="909" d="M67 1267q0 48 38.5 84t93.5 36q66 0 119.5 -57t53.5 -144q0 -105 -67.5 -192t-189.5 -123v42q101 57 132.5 103.5t31.5 107.5q0 28 -10 42q-11 14 -24 14q-10 0 -32 -8t-44 -8q-42 0 -72 30t-30 73zM547 1269q0 48 37 83t91 35q68 0 122 -58.5t54 -143.5 q0 -100 -66.5 -186.5t-192.5 -127.5v42q87 45 125.5 95.5t38.5 109.5q0 35 -10 49q-10 13 -22 13q-13 0 -35 -8q-23 -8 -40 -8q-41 0 -71.5 31t-30.5 74z" />
<glyph unicode="&#x201e;" horiz-adv-x="909" d="M67 80q0 48 38.5 84t93.5 36q66 0 119.5 -57t53.5 -144q0 -105 -67.5 -192t-189.5 -123v42q101 57 132.5 103.5t31.5 107.5q0 28 -10 42q-11 14 -24 14q-10 0 -32 -8t-44 -8q-42 0 -72 30t-30 73zM547 82q0 48 37 83t91 35q68 0 122 -58.5t54 -143.5q0 -100 -66.5 -186.5 t-192.5 -127.5v42q87 45 125.5 95.5t38.5 109.5q0 35 -10 49q-10 13 -22 13q-13 0 -35 -8q-23 -8 -40 -8q-41 0 -71.5 31t-30.5 74z" />
<glyph unicode="&#x2022;" horiz-adv-x="717" d="M112 677q0 104 73 177.5t178 73.5q104 0 177.5 -73.5t73.5 -177.5t-73.5 -177.5t-177.5 -73.5t-177.5 73.5t-73.5 177.5z" />
<glyph unicode="&#x2026;" horiz-adv-x="2048" d="M230 83q0 47 32.5 79t78.5 32q47 0 79 -32.5t32 -78.5t-32.5 -78.5t-78.5 -32.5t-78.5 32.5t-32.5 78.5zM913 83q0 47 32.5 79t78.5 32t78.5 -32.5t32.5 -78.5t-32.5 -78.5t-78.5 -32.5t-78.5 32.5t-32.5 78.5zM1596 83q0 47 32 79t79 32q46 0 78.5 -32.5t32.5 -78.5 t-32.5 -78.5t-78.5 -32.5t-78.5 32.5t-32.5 78.5z" />
<glyph unicode="&#x202f;" horiz-adv-x="359" />
<glyph unicode="&#x2039;" horiz-adv-x="682" d="M119 464l387 470h57l-244 -470l244 -472h-57z" />
<glyph unicode="&#x203a;" horiz-adv-x="682" d="M115 -8l243 470l-243 472h58l394 -472l-394 -470h-58z" />
<glyph unicode="&#x205f;" horiz-adv-x="449" />
<glyph unicode="&#x20ac;" d="M-23 576l23 78h74v16q0 30 2 67h-99l23 78h84q34 237 162 391q147 178 376 178q171 0 340 -88v-299h-39q-26 321 -301 321q-158 0 -250 -167q-71 -130 -93 -336h591l-23 -78h-574q-3 -42 -3 -83h552l-23 -78h-527q8 -211 84 -352q89 -164 240 -164q134 0 224 69 q54 41 137 156l31 -20q-86 -136 -156 -194q-115 -95 -276 -95q-230 0 -356 191q-103 156 -122 409h-101z" />
<glyph unicode="&#x2122;" horiz-adv-x="2007" d="M30 1155l21 201h728l22 -201h-34q-10 72 -52.5 106.5t-141.5 34.5h-75v-579q0 -84 20 -106.5t86 -25.5v-36h-374v36q65 6 82.5 27.5t17.5 103.5v580h-76q-95 0 -135 -31.5t-55 -109.5h-34zM870 549v36q56 0 75.5 10t28.5 31t9 90v466q0 76 -8.5 96t-28.5 30.5t-76 10.5 v37h286l273 -572l265 572h279v-37q-56 -1 -74.5 -11t-27.5 -32t-9 -92v-468q0 -85 19 -106t92 -25v-36h-398v36q59 1 79.5 12t30 32t9.5 86v492l-307 -658h-32l-308 649v-482q0 -68 8.5 -88.5t27 -31.5t57.5 -11h36v-36h-306z" />
<glyph unicode="&#x25fc;" horiz-adv-x="915" d="M0 0v915h915v-915h-915z" />
<glyph unicode="&#xfb01;" horiz-adv-x="1139" d="M25 841v75h177q0 183 50.5 285.5t149.5 161.5t224 59q86 0 156 -28.5t103.5 -73t33.5 -83.5q0 -34 -22.5 -57t-53.5 -23q-34 0 -58 17.5t-81 98.5q-33 47 -70 68q-28 15 -70 15q-51 0 -101.5 -41t-69.5 -94q-26 -72 -26 -252v-53h383q112 0 145 6h44v-710 q0 -111 26.5 -142.5t119.5 -33.5v-36h-456v36q98 0 126 43q20 30 20 133v485q0 93 -10 112q-8 15 -30.5 23.5t-144.5 8.5h-223v-596q0 -108 12 -140q9 -24 37 -41q44 -28 76 -28h42v-36h-500v36h36q70 0 101 38.5t31 170.5v596h-177z" />
<glyph unicode="&#xfb02;" horiz-adv-x="1139" d="M23 840v76h177q7 201 49 296.5t132 152.5t180 57q102 0 200 -74l141 74h40v-1210q0 -90 10.5 -117.5t39 -42.5t95.5 -16v-36h-455v36q66 1 101 20q20 10 32 37t12 119v628h-411v-593q0 -108 15 -141.5t49.5 -52.5t105.5 -17v-36h-503v36h40q57 0 92 32t35 172v600h-177z M366 916h411v298q-32 -37 -69 -37q-46 0 -104 84.5t-116 84.5q-34 0 -57 -20q-37 -30 -53 -86q-12 -42 -12 -234v-90z" />
<glyph unicode="&#xfb03;" horiz-adv-x="1735" d="M41 0v37q43 0 73.5 6t49.5 26t28 57.5t9 100.5v615h-131v73h131q0 94 20.5 182t67 155.5t121.5 108t184 40.5q51 0 94.5 -9.5t77 -29t55.5 -50.5t29 -73q56 94 149 138t218 44q69 0 121 -19.5t87 -48t52.5 -60t17.5 -56.5q0 -35 -22.5 -57.5t-53.5 -22.5q-18 0 -30.5 2 t-26.5 13t-32.5 34.5t-49.5 67.5q-15 21 -29.5 36t-31 25.5t-36 15.5t-44.5 5q-26 0 -52.5 -11t-49 -30t-40.5 -43t-28 -51q-14 -35 -20.5 -98t-6.5 -154v-54h383q57 0 92.5 2t52.5 5h43v-709q0 -58 5.5 -92t21 -52t44.5 -24.5t77 -7.5v-37h-457v37q43 0 71.5 4.5t45 22.5 t23 53t6.5 96v483q0 116 -33 131q-20 8 -55 11.5t-97 3.5h-223v-596q0 -67 4.5 -108t20.5 -63.5t47.5 -30t85.5 -7.5h10v-37h-500v37h35q36 0 61.5 8t41 31t23 64t7.5 106v596h-411v-615q0 -60 7.5 -97t25 -57.5t47 -28t73.5 -7.5v-37h-479zM367 915h411q0 88 13.5 160 t39.5 129q-8 -8 -18.5 -12.5t-21.5 -6t-31 -1.5q-25 0 -44 11.5t-36 28.5t-33.5 36.5t-34.5 36.5t-40 28.5t-50 11.5q-53 0 -84 -23t-46.5 -62.5t-20 -91.5t-4.5 -109v-136z" />
<glyph unicode="&#xfb04;" horiz-adv-x="1704" d="M41 0v37q43 0 73.5 6t49.5 26t28 57.5t9 100.5v615h-131v73h131q0 55 7.5 113t25.5 112t47.5 101.5t73 83t103 56t136.5 20.5q51 0 94.5 -9.5t77 -29t55.5 -50.5t29 -73q27 47 66 81t82 56t85.5 32.5t77.5 10.5q6 0 26.5 -1.5t47 -8.5t55 -21.5t51.5 -41.5l142 73h30 v-1194q0 -62 8.5 -98.5t27.5 -56t49 -26t73 -7.5v-37h-479v37q40 1 70 6t49.5 24t29 56t9.5 102v617h-408v-617q0 -63 6 -100t24 -56.5t51 -25t87 -6.5v-37h-500v37q52 1 85 7t51.5 27.5t25 62.5t6.5 112v596h-411v-615q0 -60 7.5 -97t25 -57.5t47 -28t73.5 -7.5v-37h-479z M367 915h411q0 56 5 100t12.5 78.5t17 61.5t18.5 49q-12 -12 -30.5 -16t-36.5 -4q-24 0 -44.5 11.5t-38 28.5t-35 36.5t-36 36.5t-40 28.5t-48.5 11.5q-53 0 -84 -23t-46.5 -62.5t-20 -91.5t-4.5 -109v-136zM942 915h408v295q-8 -8 -24 -17t-42 -9q-25 0 -43 11.5t-31 31.5 q-20 32 -34.5 54t-29 35.5t-30 19t-37.5 5.5q-50 0 -77.5 -28.5t-41 -76t-16 -110t-2.5 -131.5v-80z" />
</font>
</defs>
</svg>
