<?xml version="1.0" standalone="no"?>
<!DOCTYPE svg PUBLIC "-//W3C//DTD SVG 1.1//EN" "http://www.w3.org/Graphics/SVG/1.1/DTD/svg11.dtd" >
<svg xmlns="http://www.w3.org/2000/svg" xmlns:xlink="http://www.w3.org/1999/xlink" version="1.1">
<metadata></metadata>
<defs>
<font id="din_next_lt_prolight" horiz-adv-x="1089" >
<font-face units-per-em="2048" ascent="1536" descent="-512" />
<missing-glyph horiz-adv-x="503" />
<glyph unicode="&#xfb01;" horiz-adv-x="1118" d="M84 899v57q0 21 20 21h105q12 0 12 12v105q0 172 60.5 235.5t212.5 63.5h57q20 0 20 -21v-65q0 -21 -20 -21h-43q-112 0 -144 -33.5t-32 -144.5v-119q0 -12 12 -12h207q20 0 20 -21v-57q0 -20 -20 -20h-207q-12 0 -12 -13v-846q0 -20 -21 -20h-69q-21 0 -21 20v846 q0 13 -12 13h-105q-20 0 -20 20zM809 1257v115q0 21 20 21h91q20 0 20 -21v-115q0 -20 -20 -20h-91q-20 0 -20 20zM819 20v936q0 9 6 15t15 6h69q9 0 15 -6t6 -15v-936q0 -20 -21 -20h-69q-21 0 -21 20z" />
<glyph unicode="&#xfb02;" horiz-adv-x="1167" d="M84 899v57q0 21 20 21h105q12 0 12 12v105q0 172 60.5 235.5t212.5 63.5h57q20 0 20 -21v-65q0 -21 -20 -21h-43q-112 0 -144 -33.5t-32 -144.5v-119q0 -12 12 -12h207q20 0 20 -21v-57q0 -20 -20 -20h-207q-12 0 -12 -13v-846q0 -20 -21 -20h-69q-21 0 -21 20v846 q0 13 -12 13h-105q-20 0 -20 20zM817 223v1149q0 9 6 15t15 6h69q9 0 15 -6t6 -15v-1145q0 -71 24 -99t80 -28h35q20 0 20 -20v-66q0 -20 -20 -20h-47q-110 0 -156.5 53.5t-46.5 175.5z" />
<glyph unicode="&#xfb03;" horiz-adv-x="1748" d="M84 899v57q0 21 20 21h105q12 0 12 12v105q0 172 60.5 235.5t212.5 63.5h57q20 0 20 -21v-65q0 -21 -20 -21h-43q-112 0 -144 -33.5t-32 -144.5v-119q0 -12 12 -12h207q20 0 20 -21v-57q0 -20 -20 -20h-207q-12 0 -12 -13v-846q0 -20 -21 -20h-69q-21 0 -21 20v846 q0 13 -12 13h-105q-20 0 -20 20zM715 899v57q0 21 20 21h105q12 0 12 12v105q0 172 60 235.5t212 63.5h58q20 0 20 -21v-65q0 -21 -20 -21h-43q-112 0 -144 -33.5t-32 -144.5v-119q0 -12 12 -12h207q20 0 20 -21v-57q0 -20 -20 -20h-207q-12 0 -12 -13v-846q0 -20 -21 -20 h-70q-20 0 -20 20v846q0 13 -12 13h-105q-20 0 -20 20zM1440 1257v115q0 21 20 21h90q9 0 15 -6t6 -15v-115q0 -20 -21 -20h-90q-20 0 -20 20zM1450 20v936q0 21 20 21h70q9 0 15 -6t6 -15v-936q0 -20 -21 -20h-70q-20 0 -20 20z" />
<glyph unicode="&#xfb04;" horiz-adv-x="1798" d="M84 899v57q0 21 20 21h105q12 0 12 12v105q0 172 60.5 235.5t212.5 63.5h57q20 0 20 -21v-65q0 -21 -20 -21h-43q-112 0 -144 -33.5t-32 -144.5v-119q0 -12 12 -12h207q20 0 20 -21v-57q0 -20 -20 -20h-207q-12 0 -12 -13v-846q0 -20 -21 -20h-69q-21 0 -21 20v846 q0 13 -12 13h-105q-20 0 -20 20zM715 899v57q0 21 20 21h105q12 0 12 12v105q0 172 60 235.5t212 63.5h58q20 0 20 -21v-65q0 -21 -20 -21h-43q-112 0 -144 -33.5t-32 -144.5v-119q0 -12 12 -12h207q20 0 20 -21v-57q0 -20 -20 -20h-207q-12 0 -12 -13v-846q0 -20 -21 -20 h-70q-20 0 -20 20v846q0 13 -12 13h-105q-20 0 -20 20zM1448 223v1149q0 21 20 21h70q9 0 15 -6t6 -15v-1145q0 -71 24 -99t80 -28h35q20 0 20 -20v-66q0 -20 -20 -20h-47q-110 0 -156.5 53.5t-46.5 175.5z" />
<glyph horiz-adv-x="0" />
<glyph horiz-adv-x="682" />
<glyph unicode=" "  horiz-adv-x="503" />
<glyph unicode="&#x09;" horiz-adv-x="503" />
<glyph unicode="&#xa0;" horiz-adv-x="503" />
<glyph unicode="!" horiz-adv-x="544" d="M201 20v138q0 20 20 20h103q20 0 20 -20v-138q0 -20 -20 -20h-103q-20 0 -20 20zM213 1372q0 21 20 21h80q9 0 15 -6t6 -15l-17 -989q0 -21 -20 -21h-47q-9 0 -15 6t-6 15z" />
<glyph unicode="&#x22;" horiz-adv-x="643" d="M152 1085v287q0 21 20 21h53q9 0 15 -6t6 -15v-287q0 -20 -21 -20h-53q-20 0 -20 20zM397 1085v287q0 9 6 15t15 6h53q9 0 15 -6t6 -15v-287q0 -20 -21 -20h-53q-21 0 -21 20z" />
<glyph unicode="#" horiz-adv-x="1060" d="M55 469v49q0 9 6 15t15 6h176l47 346h-172q-21 0 -21 20v51q0 9 6 15t15 6h184l56 395q3 21 22 21h55q22 0 19 -21l-55 -395h307l55 395q4 21 23 21h55q22 0 18 -21l-55 -395h174q9 0 15 -6t6 -15v-51q0 -20 -21 -20h-186l-47 -346h184q20 0 20 -21v-49q0 -20 -20 -20 h-197l-57 -429q-3 -20 -23 -20h-55q-21 0 -18 20l57 429h-307l-57 -429q-3 -20 -23 -20h-55q-22 0 -19 20l58 429h-164q-21 0 -21 20zM348 539h307l47 346h-307z" />
<glyph unicode="$" d="M126 116q-1 9 5 15l43 57q10 13 29 2q151 -96 313 -104v567q-180 29 -269 125.5t-89 245.5q0 165 99 270t259 117v107q0 20 21 20h38q21 0 21 -20v-107q160 -8 297 -92q8 -5 10 -13t-4 -16l-35 -55q-12 -15 -28 -6q-127 68 -240 76v-549q186 -27 278.5 -122.5 t92.5 -250.5q0 -168 -98 -276t-273 -123v-109q0 -20 -21 -20h-38q-21 0 -21 20v105q-109 3 -209.5 36.5t-173.5 85.5q-6 5 -7 14zM266 1034q0 -108 57.5 -174.5t192.5 -93.5v539q-114 -11 -182 -84t-68 -187zM596 88q123 14 192.5 89t69.5 200q0 110 -60.5 176t-201.5 88 v-553z" />
<glyph unicode="%" horiz-adv-x="1576" d="M180 1042q0 145 17 215q24 71 81.5 111.5t141.5 40.5q82 0 139.5 -40.5t81.5 -111.5q16 -66 16 -215t-16 -215q-23 -71 -81 -111t-140 -40q-84 0 -141.5 40t-81.5 111q-17 70 -17 215zM272 1042q0 -154 15 -194q27 -88 133 -88q104 0 131 88q8 22 11 57t3 137 q0 157 -14 195q-27 88 -131 88q-106 0 -133 -88q-15 -41 -15 -195zM335.5 -14.5q-3.5 5.5 0.5 14.5l807 1393q11 20 28 20h56q9 0 12.5 -5.5t-0.5 -14.5l-807 -1393q-11 -20 -29 -20h-55q-9 0 -12.5 5.5zM922 350q0 162 16 215q24 71 81.5 111.5t139.5 40.5q83 0 141 -40.5 t80 -111.5q17 -56 17 -215q0 -162 -17 -215q-22 -71 -80 -111t-141 -40q-82 0 -140 40t-81 111q-16 50 -16 215zM1012 350q0 -147 14 -194q30 -88 133 -88t133 88q15 51 15 194q0 146 -15 193q-30 88 -133 88t-133 -88q-14 -44 -14 -193z" />
<glyph unicode="&#x26;" horiz-adv-x="1265" d="M156 332q0 116 70.5 221.5t217.5 224.5q-111 143 -150.5 214.5t-39.5 140.5q0 122 84.5 201t212.5 79q129 0 211 -79t82 -199q0 -93 -54 -173.5t-200 -199.5l311 -404l146 183q13 16 28 4l43 -37q18 -12 4 -29l-159 -203l96 -124q22 -28 38.5 -37t41.5 -9h28q21 0 21 -20 v-66q0 -20 -21 -20h-43q-52 0 -82.5 17t-66.5 65l-82 108q-96 -109 -185 -159.5t-196 -50.5q-164 0 -260 97t-96 255zM262 336q0 -114 67.5 -184t184.5 -70q85 0 158 45t159 145l-325 424q-125 -102 -184.5 -185t-59.5 -175zM362 1135q0 -50 30 -101t134 -188 q130 104 171.5 164t41.5 125q0 77 -53 126.5t-135 49.5q-83 0 -136 -49.5t-53 -126.5z" />
<glyph unicode="'" horiz-adv-x="397" d="M152 1085v287q0 21 20 21h53q9 0 15 -6t6 -15v-287q0 -20 -21 -20h-53q-20 0 -20 20z" />
<glyph unicode="(" horiz-adv-x="565" d="M154 672q0 211 58.5 425t166.5 398q14 21 31 21h41q9 0 13.5 -6t0.5 -15q-96 -187 -149.5 -400.5t-53.5 -422.5q0 -208 54 -423t149 -401q4 -9 -0.5 -14.5t-13.5 -5.5h-41q-18 0 -31 20q-109 186 -167 399.5t-58 424.5z" />
<glyph unicode=")" horiz-adv-x="565" d="M100 -152q96 185 149.5 400t53.5 424t-53.5 422.5t-149.5 400.5q-4 9 1 15t14 6h43q14 0 28 -21q109 -184 167.5 -398t58.5 -425t-58.5 -424.5t-167.5 -399.5q-13 -20 -28 -20h-43q-10 0 -14.5 5.5t-0.5 14.5z" />
<glyph unicode="*" horiz-adv-x="714" d="M102 981q-11 19 9 29l170 98l-170 98q-20 10 -9 29l17 31q11 18 28 8l172 -100v198q0 9 6 15t15 6h35q20 0 20 -21v-198l172 100q8 4 16 2t13 -10l16 -31q12 -19 -8 -29l-172 -98l172 -98q20 -10 8 -29l-16 -31q-5 -8 -13 -10t-16 2l-172 100v-198q0 -21 -20 -21h-35 q-9 0 -15 6t-6 15v196l-172 -98q-17 -10 -28 8z" />
<glyph unicode="+" d="M135 535v61q0 20 21 20h323q13 0 13 13v327q0 21 20 21h66q20 0 20 -21v-327q0 -13 12 -13h324q20 0 20 -20v-61q0 -21 -20 -21h-324q-12 0 -12 -12v-328q0 -20 -20 -20h-66q-20 0 -20 20v328q0 12 -13 12h-323q-9 0 -15 6t-6 15z" />
<glyph unicode="," horiz-adv-x="436" d="M154 158q0 20 20 20h88q21 0 21 -20v-154q0 -23 -11 -45l-79 -158q-8 -16 -25 -16q-14 0 -14 18v355z" />
<glyph unicode="-" horiz-adv-x="765" d="M100 514v64q0 20 21 20h524q21 0 21 -20v-64q0 -20 -21 -20h-524q-21 0 -21 20z" />
<glyph unicode="." horiz-adv-x="448" d="M154 20v138q0 20 20 20h100q21 0 21 -20v-138q0 -20 -21 -20h-100q-20 0 -20 20z" />
<glyph unicode="/" horiz-adv-x="833" d="M139 0l453 1393q6 20 26 20h62q9 0 13 -5.5t1 -14.5l-452 -1393q-6 -20 -27 -20h-61q-9 0 -13.5 5.5t-1.5 14.5z" />
<glyph unicode="0" d="M156 696q0 375 30 467q40 121 133 185.5t226 64.5t225.5 -64.5t132.5 -185.5q31 -95 31 -467t-31 -467q-40 -121 -132.5 -185t-225.5 -64t-226 64t-133 185q-30 92 -30 467zM266 696q0 -349 29 -442q57 -170 250 -170t250 170q28 90 28 442q0 353 -28 443 q-57 170 -250 170t-250 -170q-29 -93 -29 -443z" />
<glyph unicode="1" d="M248 1077v86q0 20 14 31l258 186q16 13 31 13h65q9 0 15 -6t6 -15v-1352q0 -20 -21 -20h-69q-21 0 -21 20v1223h-4l-252 -178q-8 -6 -15 -3t-7 15z" />
<glyph unicode="2" d="M170 20v54q0 15 8 26l514 674q115 148 115 273q0 114 -74 187t-192 73q-112 0 -180 -64t-87 -176q-3 -19 -24 -16l-64 16q-19 3 -16 23q9 65 37 122.5t74 102.5t113.5 71.5t148.5 26.5q168 0 271.5 -102.5t103.5 -263.5q0 -87 -35.5 -167t-106.5 -173l-459 -598v-3h580 q21 0 21 -20v-66q0 -20 -21 -20h-707q-20 0 -20 20z" />
<glyph unicode="3" d="M150 266q-7 21 14 27l65 16q20 6 27 -14q12 -40 32.5 -74.5t53.5 -66t85 -50t116 -18.5q129 0 206.5 80.5t77.5 208.5q0 130 -80.5 213.5t-211.5 83.5h-64q-20 0 -20 20v66q0 20 20 20h61q118 0 191.5 75t73.5 194q0 117 -70.5 188.5t-191.5 71.5q-112 0 -177 -57 t-86 -144q-1 -9 -7.5 -13.5t-14.5 -2.5l-68 18q-20 3 -16 25q22 117 119 198.5t252 81.5q170 0 271 -101t101 -263q0 -113 -53.5 -191t-132.5 -123v-4q37 -16 72.5 -44t69 -70.5t53.5 -104t20 -133.5q0 -177 -110 -288t-285 -111q-84 0 -154.5 24t-117.5 65t-77.5 91 t-43.5 106z" />
<glyph unicode="4" d="M117 299v61q0 7 4 23l452 993q9 17 27 17h76q10 0 13.5 -5.5t0.5 -13.5l-448 -987v-2h430q12 0 12 12v381q0 9 6 15t15 6h69q9 0 15 -6t6 -15v-381q0 -12 12 -12h154q20 0 20 -20v-66q0 -20 -20 -20h-154q-12 0 -12 -13v-246q0 -20 -21 -20h-69q-21 0 -21 20v246 q0 13 -12 13h-535q-20 0 -20 20z" />
<glyph unicode="5" d="M186 274q-4 19 15 25l65 16q20 6 27 -16q16 -96 84.5 -154.5t181.5 -58.5q88 0 152.5 41t91.5 119q20 64 20 200q0 134 -24 205q-24 77 -85.5 116.5t-150.5 39.5q-94 0 -159 -48t-87 -118q-6 -20 -20 -20h-68q-20 0 -20 20v731q0 21 20 21h658q20 0 20 -21v-65 q0 -21 -20 -21h-559q-13 0 -13 -12v-481h4q29 49 97 84.5t157 35.5q124 0 208.5 -56.5t119.5 -164.5q33 -104 33 -246q0 -144 -29 -233q-36 -111 -127 -172t-217 -61q-158 0 -257.5 81.5t-117.5 212.5z" />
<glyph unicode="6" d="M139 399q0 145 90 314l346 665q9 15 27 15h76q10 0 13 -6.5t-1 -12.5l-313 -604l4 -2q59 49 180 49q171 0 281 -114.5t110 -299.5q0 -193 -113 -308t-292 -115q-181 0 -294.5 114.5t-113.5 304.5zM250 397q0 -138 82.5 -224.5t214.5 -86.5q131 0 213 86.5t82 224.5 t-82.5 226t-212.5 88q-132 0 -214.5 -88t-82.5 -226z" />
<glyph unicode="7" d="M193 1083v289q0 21 20 21h705q20 0 20 -21v-76q0 -8 -4 -20l-500 -1258q-5 -11 -9.5 -14.5t-16.5 -3.5h-76q-20 0 -10 23l497 1257v6h-504q-12 0 -12 -12v-191q0 -20 -20 -20h-70q-20 0 -20 20z" />
<glyph unicode="8" d="M135 377q0 126 61 218.5t162 135.5v4q-84 41 -135 123.5t-51 188.5q0 158 103.5 262t269.5 104t269.5 -104t103.5 -262q0 -106 -51.5 -188.5t-135.5 -123.5v-4q101 -43 162 -135.5t61 -218.5q0 -175 -114.5 -286t-294.5 -111t-295 111t-115 286zM246 381q0 -129 82 -212 t217 -83t217 83t82 212q0 130 -82.5 214.5t-216.5 84.5t-216.5 -84.5t-82.5 -214.5zM283 1047q0 -112 72 -186.5t190 -74.5q117 0 189.5 74.5t72.5 186.5q0 113 -73 186.5t-189 73.5t-189 -73.5t-73 -186.5z" />
<glyph unicode="9" d="M137 989q0 193 113.5 308.5t292.5 115.5q180 0 293.5 -115t113.5 -305q0 -144 -90 -313l-346 -666q-8 -14 -27 -14h-75q-10 0 -13.5 6t0.5 12l314 605l-4 2q-60 -50 -181 -50q-171 0 -281 114.5t-110 299.5zM248 995q0 -138 82.5 -225.5t212.5 -87.5q132 0 214.5 87.5 t82.5 225.5t-82.5 225t-214.5 87q-130 0 -212.5 -87t-82.5 -225z" />
<glyph unicode=":" horiz-adv-x="464" d="M162 20v138q0 20 20 20h101q20 0 20 -20v-138q0 -20 -20 -20h-101q-20 0 -20 20zM162 817v139q0 21 20 21h101q20 0 20 -21v-139q0 -20 -20 -20h-101q-20 0 -20 20z" />
<glyph unicode=";" horiz-adv-x="464" d="M162 817v139q0 21 20 21h101q20 0 20 -21v-139q0 -20 -20 -20h-101q-20 0 -20 20zM168 158q0 20 20 20h88q21 0 21 -20v-154q0 -25 -10 -45l-80 -158q-8 -16 -25 -16q-14 0 -14 18v355z" />
<glyph unicode="&#x3c;" d="M135 539v53q0 18 21 26l778 318q9 3 14.5 -1t5.5 -13v-72q0 -18 -20 -27l-647 -256v-4l647 -256q20 -9 20 -26v-72q0 -9 -5.5 -13t-14.5 -1l-778 317q-21 8 -21 27z" />
<glyph unicode="=" d="M135 336v61q0 9 6 15t15 6h778q20 0 20 -21v-61q0 -21 -20 -21h-778q-9 0 -15 6t-6 15zM135 733v62q0 20 21 20h778q20 0 20 -20v-62q0 -20 -20 -20h-778q-21 0 -21 20z" />
<glyph unicode="&#x3e;" d="M135 209v72q0 17 21 26l647 256v4l-647 256q-21 9 -21 27v72q0 9 6 13t15 1l778 -318q20 -8 20 -26v-53q0 -19 -20 -27l-778 -317q-9 -3 -15 1t-6 13z" />
<glyph unicode="?" horiz-adv-x="913" d="M100 1098q22 141 119 228t246 87q157 0 254.5 -94.5t97.5 -243.5q0 -82 -28 -147t-97 -148l-112 -151q-41 -50 -53.5 -85.5t-12.5 -94.5v-72q0 -21 -20 -21h-72q-9 0 -15 6t-6 15v80q0 64 14 107.5t52 92.5l113 150q75 92 100 147t25 121q0 108 -68 170t-174 62 q-101 0 -166.5 -59.5t-87.5 -170.5q-3 -19 -23 -16l-69 12q-9 1 -14 8.5t-3 16.5zM385 20v138q0 20 21 20h102q20 0 20 -20v-138q0 -20 -20 -20h-102q-21 0 -21 20z" />
<glyph unicode="@" horiz-adv-x="1810" d="M100 547q0 176 59.5 326.5t165 255.5t255.5 164t325 59q176 0 326 -59.5t256 -164.5t165.5 -255t59.5 -326q0 -217 -87.5 -324.5t-227.5 -107.5q-86 0 -149 42.5t-91 116.5h-2q-35 -77 -108 -118t-173 -41q-221 0 -288 204q-27 89 -27 218q0 128 27 217q67 204 284 204 q181 0 250 -120h4v80q0 9 5.5 14.5t13.5 5.5h61q19 0 19 -20v-502q0 -101 52 -154t126 -53q93 0 152 79t59 259q0 318 -194.5 514t-512.5 196q-317 0 -510.5 -195.5t-193.5 -514.5q0 -320 193.5 -516.5t510.5 -196.5q262 0 449 98q16 9 26 -8l21 -47q7 -18 -10 -27 q-193 -110 -486 -110q-175 0 -325 59.5t-255.5 165t-165 255.5t-59.5 327zM659 537q0 -116 21 -181q48 -145 211 -145q165 0 213 145q20 61 20 181q0 119 -20 180q-48 145 -213 145q-163 0 -211 -145q-21 -65 -21 -180z" />
<glyph unicode="A" horiz-adv-x="1220" d="M63 20l488 1352q7 21 24 21h74q18 0 25 -21l483 -1352q3 -9 -1 -14.5t-13 -5.5h-80q-22 0 -27 20l-123 342h-606l-123 -342q-8 -20 -26 -20h-80q-9 0 -13.5 5.5t-1.5 14.5zM346 475h528l-260 729h-6z" />
<glyph unicode="B" horiz-adv-x="1230" d="M193 20v1352q0 21 20 21h467q195 0 300 -97t105 -264q0 -124 -57.5 -203.5t-157.5 -109.5v-4q40 -8 80.5 -32.5t76.5 -64t58.5 -101.5t22.5 -134q0 -181 -112 -282t-316 -101h-467q-20 0 -20 20zM309 123q0 -12 13 -12h366q147 0 225 72.5t78 197.5q0 126 -78.5 199 t-224.5 73h-366q-13 0 -13 -12v-518zM309 776q0 -12 13 -12h356q138 0 214.5 70.5t76.5 187.5q0 121 -76 190.5t-215 69.5h-356q-13 0 -13 -12v-494z" />
<glyph unicode="C" horiz-adv-x="1138" d="M133 696q0 293 37 406q104 311 440 311q144 0 252.5 -66t167.5 -192q8 -19 -6 -27l-68 -32q-16 -9 -26 8q-105 199 -320 199q-246 0 -327 -232q-31 -95 -31 -375q0 -279 31 -374q81 -232 327 -232q215 0 320 199q10 17 26 8l68 -33q13 -8 6 -26q-59 -126 -167.5 -192 t-252.5 -66q-336 0 -440 311q-37 113 -37 405z" />
<glyph unicode="D" horiz-adv-x="1269" d="M193 20v1352q0 21 20 21h436q354 0 445 -283q22 -66 30.5 -149.5t8.5 -264.5t-8.5 -264t-30.5 -149q-91 -283 -445 -283h-436q-20 0 -20 20zM309 123q0 -12 13 -12h311q278 0 348 211q18 54 25.5 129.5t7.5 244.5t-7.5 245t-25.5 130q-70 211 -348 211h-311 q-13 0 -13 -12v-1147z" />
<glyph unicode="E" horiz-adv-x="1138" d="M193 20v1352q0 21 20 21h797q20 0 20 -21v-69q0 -21 -20 -21h-688q-13 0 -13 -12v-496q0 -12 13 -12h591q9 0 15 -6t6 -15v-69q0 -9 -6 -15t-15 -6h-591q-13 0 -13 -12v-516q0 -12 13 -12h688q20 0 20 -21v-70q0 -20 -20 -20h-797q-20 0 -20 20z" />
<glyph unicode="F" horiz-adv-x="1128" d="M193 20v1352q0 21 20 21h797q20 0 20 -21v-69q0 -21 -20 -21h-688q-13 0 -13 -12v-510q0 -12 13 -12h591q9 0 15 -6t6 -15v-70q0 -20 -21 -20h-591q-13 0 -13 -12v-605q0 -20 -20 -20h-76q-20 0 -20 20z" />
<glyph unicode="G" horiz-adv-x="1247" d="M133 696q0 285 39 404q51 154 167.5 233.5t287.5 79.5q162 0 271.5 -70.5t164.5 -187.5q8 -19 -8 -27l-66 -32q-17 -7 -26 8q-54 99 -135.5 149t-202.5 50q-129 0 -215.5 -60t-124.5 -176q-33 -97 -33 -371q0 -273 33 -370q38 -116 124.5 -176t215.5 -60 q127 0 214.5 59.5t125.5 172.5q32 94 32 266q0 12 -12 12h-315q-9 0 -15 6t-6 15v67q0 9 6 15t15 6h424q20 0 20 -21v-84q0 -192 -37 -309q-49 -154 -165.5 -234.5t-284.5 -80.5q-171 0 -287.5 79.5t-167.5 233.5q-39 119 -39 403z" />
<glyph unicode="H" horiz-adv-x="1331" d="M193 20v1352q0 21 20 21h76q20 0 20 -21v-598q0 -12 13 -12h688q12 0 12 12v598q0 21 20 21h76q9 0 15 -6t6 -15v-1352q0 -20 -21 -20h-76q-20 0 -20 20v619q0 12 -12 12h-688q-13 0 -13 -12v-619q0 -20 -20 -20h-76q-20 0 -20 20z" />
<glyph unicode="I" horiz-adv-x="501" d="M193 20v1352q0 21 20 21h76q20 0 20 -21v-1352q0 -20 -20 -20h-76q-20 0 -20 20z" />
<glyph unicode="J" horiz-adv-x="970" d="M80 123l55 51q14 14 31 0q42 -35 100 -59.5t119 -24.5q137 0 213 80t76 248v954q0 21 20 21h76q9 0 15 -6t6 -15v-954q0 -218 -108 -328t-300 -110q-87 0 -168 32t-133 82q-16 16 -2 29z" />
<glyph unicode="K" horiz-adv-x="1222" d="M193 20v1352q0 21 20 21h76q20 0 20 -21v-803l664 805q19 19 35 19h96q9 0 12 -7.5t-4 -15.5l-440 -526l475 -821q6 -9 2.5 -16t-12.5 -7h-93q-18 0 -30 18l-420 732l-285 -340v-390q0 -20 -20 -20h-76q-20 0 -20 20z" />
<glyph unicode="L" horiz-adv-x="1085" d="M193 20v1352q0 21 20 21h76q20 0 20 -21v-1249q0 -12 13 -12h688q20 0 20 -21v-70q0 -20 -20 -20h-797q-20 0 -20 20z" />
<glyph unicode="M" horiz-adv-x="1546" d="M193 20v1352q0 21 20 21h78q22 0 31 -21l452 -997h8l443 997q9 21 28 21h80q9 0 15 -6t6 -15v-1352q0 -20 -21 -20h-76q-20 0 -20 20v1090h-6l-402 -883q-11 -22 -36 -22h-41q-24 0 -35 22l-402 883h-6v-1090q0 -20 -20 -20h-76q-20 0 -20 20z" />
<glyph unicode="N" horiz-adv-x="1333" d="M193 20v1352q0 21 20 21h76q25 0 35 -21l694 -1145h6v1145q0 21 20 21h76q9 0 15 -6t6 -15v-1352q0 -20 -21 -20h-80q-22 0 -34 20l-689 1147h-8v-1147q0 -20 -20 -20h-76q-20 0 -20 20z" />
<glyph unicode="O" horiz-adv-x="1247" d="M133 696q0 168 10 255t31 149q51 154 166 233.5t285 79.5q169 0 283 -79.5t165 -233.5q21 -62 31 -149t10 -255t-10 -254.5t-31 -148.5q-51 -154 -165 -233.5t-283 -79.5q-170 0 -285 79.5t-166 233.5q-21 62 -31 148.5t-10 254.5zM252 696q0 -263 35 -370 q78 -236 338 -236q258 0 336 236q34 104 34 370q0 267 -34 371q-78 236 -336 236q-260 0 -338 -236q-35 -107 -35 -371z" />
<glyph unicode="P" horiz-adv-x="1198" d="M193 20v1352q0 21 20 21h465q199 0 313.5 -106.5t114.5 -289.5t-114.5 -288t-313.5 -105h-356q-13 0 -13 -12v-572q0 -20 -20 -20h-76q-20 0 -20 20zM309 727q0 -12 13 -12h352q153 0 234 73.5t81 208.5t-81.5 210t-233.5 75h-352q-13 0 -13 -12v-543z" />
<glyph unicode="Q" horiz-adv-x="1247" d="M133 696q0 168 10 255t31 149q51 154 166 233.5t285 79.5q169 0 283 -79.5t165 -233.5q21 -62 31 -149t10 -255t-10 -254.5t-31 -148.5q-22 -72 -65 -133l143 -150q15 -15 -2 -28l-49 -48q-17 -14 -31 0l-135 146q-121 -100 -309 -100q-170 0 -285 79.5t-166 233.5 q-21 62 -31 148.5t-10 254.5zM252 696q0 -263 35 -370q78 -236 338 -236q142 0 231 74l-168 180q-14 14 0 29l51 47q17 13 29 -2l158 -170q21 38 35 78q34 104 34 370q0 267 -34 371q-78 236 -336 236q-260 0 -338 -236q-35 -107 -35 -371z" />
<glyph unicode="R" horiz-adv-x="1259" d="M193 20v1352q0 21 20 21h467q197 0 310.5 -103.5t113.5 -281.5q0 -144 -75.5 -240.5t-209.5 -128.5l303 -616q6 -9 2.5 -16t-12.5 -7h-94q-17 0 -25 18l-293 605h-20h-358q-13 0 -13 -13v-590q0 -20 -20 -20h-76q-20 0 -20 20zM309 745q0 -12 13 -12h356q149 0 229 71.5 t80 203.5q0 131 -80 202.5t-229 71.5h-356q-13 0 -13 -12v-525z" />
<glyph unicode="S" horiz-adv-x="1220" d="M131 170l49 61q14 17 29 2q78 -61 182 -102t217 -41q166 0 263.5 77.5t97.5 207.5q0 110 -76 178.5t-258 91.5l-64 8q-201 26 -301 120t-100 249q0 181 119 286t319 105q113 0 219 -31.5t179 -85.5q18 -11 4 -28l-41 -64q-12 -14 -29 -4q-168 103 -338 103 q-147 0 -231 -75t-84 -198q0 -110 77 -175.5t250 -88.5l64 -8q407 -53 407 -375q0 -183 -127 -293t-364 -110q-130 0 -257 47t-204 114q-15 15 -2 29z" />
<glyph unicode="T" horiz-adv-x="1075" d="M45 1303v69q0 9 6 15t15 6h944q20 0 20 -21v-69q0 -21 -20 -21h-402q-12 0 -12 -12v-1250q0 -20 -21 -20h-75q-21 0 -21 20v1250q0 12 -12 12h-401q-9 0 -15 6t-6 15z" />
<glyph unicode="U" horiz-adv-x="1300" d="M178 481v891q0 9 6 15t15 6h75q9 0 15 -6t6 -15v-893q0 -193 92.5 -291t261.5 -98q171 0 264 98t93 291v893q0 21 20 21h76q20 0 20 -21v-891q0 -249 -125 -375t-348 -126q-221 0 -346 126t-125 375z" />
<glyph unicode="V" horiz-adv-x="1146" d="M54.5 1385.5q4.5 7.5 15.5 7.5h71q23 0 31 -21l403 -1177h5l393 1177q8 21 28 21h74q11 0 16 -8t1 -21l-459 -1344q-7 -20 -25 -20h-69q-16 0 -23 20l-461 1344q-5 14 -0.5 21.5z" />
<glyph unicode="W" horiz-adv-x="1673" d="M66 1370q-7 23 16 23h74q23 0 26 -21l275 -1147h4l321 1147q6 21 25 21h61q19 0 25 -21l326 -1147h4l268 1147q5 21 27 21h73q11 0 15.5 -6.5t1.5 -16.5l-330 -1350q-3 -20 -23 -20h-67q-17 0 -23 20l-325 1141h-4l-328 -1141q-6 -20 -23 -20h-65q-18 0 -25 20z" />
<glyph unicode="X" horiz-adv-x="1116" d="M66 7q-3 7 2 16l424 708l-381 639q-6 9 -2.5 16t12.5 7h92q17 0 27 -19l317 -526h2l318 526q13 19 26 19h92q9 0 12.5 -7t-1.5 -16l-383 -639l426 -708q5 -9 1 -16t-14 -7h-92q-17 0 -26 18l-359 596h-2l-360 -596q-9 -18 -27 -18h-92q-9 0 -12 7z" />
<glyph unicode="Y" horiz-adv-x="1054" d="M51 1370q-3 8 2 15.5t15 7.5h79q21 0 31 -21l350 -665h7l344 665q6 12 12 16.5t18 4.5h78q11 0 15.5 -7.5t1.5 -15.5l-418 -799v-551q0 -20 -21 -20h-76q-20 0 -20 20v551z" />
<glyph unicode="Z" horiz-adv-x="1105" d="M109 20v68q0 14 10 31l739 1161v2h-702q-9 0 -15 6t-6 15v69q0 9 6 15t15 6h819q20 0 20 -21v-67q0 -16 -10 -31l-739 -1161v-2h729q20 0 20 -21v-70q0 -20 -20 -20h-846q-20 0 -20 20z" />
<glyph unicode="[" horiz-adv-x="579" d="M205 -152v1647q0 21 20 21h244q20 0 20 -21v-55q0 -21 -20 -21h-145q-13 0 -13 -12v-1470q0 -13 13 -13h145q20 0 20 -20v-56q0 -20 -20 -20h-244q-20 0 -20 20z" />
<glyph unicode="\" horiz-adv-x="833" d="M139 1393q-3 9 1.5 14.5t13.5 5.5h61q21 0 27 -20l452 -1393q3 -9 -1 -14.5t-13 -5.5h-62q-20 0 -26 20z" />
<glyph unicode="]" horiz-adv-x="579" d="M90 -96q0 20 21 20h145q12 0 12 13v1470q0 12 -12 12h-145q-9 0 -15 6t-6 15v55q0 9 6 15t15 6h243q9 0 15 -6t6 -15v-1647q0 -20 -21 -20h-243q-21 0 -21 20v56z" />
<glyph unicode="^" d="M137 598l355 774q10 21 28 21h49q19 0 29 -21l352 -774q4 -9 0.5 -14.5t-12.5 -5.5h-66q-17 0 -26 20l-299 651h-4l-301 -651q-9 -20 -27 -20h-63q-10 0 -14.5 5.5t-0.5 14.5z" />
<glyph unicode="_" horiz-adv-x="940" d="M0 -168h940v-84h-940v84z" />
<glyph unicode="`" horiz-adv-x="862" d="M288.5 1427q3.5 7 12.5 7h78q21 0 33 -21l157 -250q6 -9 2.5 -14.5t-12.5 -5.5h-51q-20 0 -37 20l-180 250q-6 7 -2.5 14z" />
<glyph unicode="a" horiz-adv-x="1050" d="M135 268q0 144 95 216.5t276 72.5h248q12 0 12 12v101q0 123 -54 174t-200 51q-156 0 -246 -74q-17 -14 -30 2l-35 51q-10 16 6 29q112 94 311 94q193 0 274.5 -72.5t81.5 -250.5v-654q0 -20 -20 -20h-66q-20 0 -20 20v103h-2q-31 -64 -109 -103.5t-194 -39.5 q-151 0 -239.5 74.5t-88.5 213.5zM244 270q0 -92 62 -140t179 -48q126 0 203.5 60t77.5 159v150q0 12 -12 12h-234q-144 0 -210 -47.5t-66 -145.5z" />
<glyph unicode="b" horiz-adv-x="1087" d="M188 20v1352q0 9 6 15t15 6h70q20 0 20 -21v-534h2q81 159 297 159q256 0 332 -233q35 -112 35 -277q0 -162 -35 -274q-76 -233 -332 -233q-216 0 -297 159h-2v-119q0 -20 -20 -20h-70q-21 0 -21 20zM299 487q0 -149 27 -229q27 -85 91.5 -128.5t157.5 -43.5 q193 0 250 172q27 82 27 229q0 150 -27 232q-57 172 -250 172q-93 0 -157.5 -43.5t-91.5 -128.5q-27 -79 -27 -232z" />
<glyph unicode="c" horiz-adv-x="962" d="M123 487q0 151 31 256q38 120 133.5 187t230.5 67q219 0 330 -184q10 -17 -6 -27l-58 -36q-16 -9 -26 8q-44 69 -100 101t-140 32q-96 0 -161.5 -47t-94.5 -137q-26 -77 -26 -220q0 -140 26 -217q29 -90 94.5 -137t161.5 -47q84 0 140 32t100 101q10 17 26 8l58 -37 q16 -10 6 -26q-111 -184 -330 -184q-135 0 -230.5 66.5t-133.5 186.5q-31 105 -31 254z" />
<glyph unicode="d" horiz-adv-x="1087" d="M123 487q0 173 35 277q73 233 331 233q216 0 297 -159h2v534q0 9 6 15t15 6h70q20 0 20 -21v-1352q0 -20 -20 -20h-70q-21 0 -21 20v119h-2q-81 -159 -297 -159q-258 0 -331 233q-35 104 -35 274zM236 487q0 -150 26 -229q28 -84 91.5 -128t158.5 -44q94 0 158.5 43.5 t91.5 128.5q26 77 26 229q0 155 -26 232q-27 85 -91.5 128.5t-158.5 43.5q-95 0 -158.5 -44t-91.5 -128q-26 -79 -26 -232z" />
<glyph unicode="e" horiz-adv-x="1028" d="M123 489q0 159 29 254q39 122 134 188t228 66t229.5 -66t135.5 -188q28 -85 28 -260q0 -20 -22 -20h-637q-12 0 -12 -14q0 -109 20 -173q66 -190 276 -190q174 0 273 125q13 17 29 4l47 -43q15 -12 2 -29q-56 -75 -148 -119t-209 -44q-142 0 -237.5 66t-136.5 192 q-29 95 -29 251zM236 569q0 -12 12 -12h534q13 0 13 12q0 80 -19 142q-29 90 -96.5 137t-165.5 47q-96 0 -163.5 -47t-96.5 -137q-18 -59 -18 -142z" />
<glyph unicode="f" horiz-adv-x="630" d="M84 899v57q0 21 20 21h105q12 0 12 12v105q0 172 60.5 235.5t212.5 63.5h57q20 0 20 -21v-65q0 -21 -20 -21h-43q-112 0 -144 -33.5t-32 -144.5v-119q0 -12 12 -12h207q20 0 20 -21v-57q0 -20 -20 -20h-207q-12 0 -12 -13v-846q0 -20 -21 -20h-69q-21 0 -21 20v846 q0 13 -12 13h-105q-20 0 -20 20z" />
<glyph unicode="g" horiz-adv-x="1069" d="M121 496q0 166 33 266q37 113 120 174t205 61q214 0 289 -159h2v118q0 9 6 15t15 6h69q9 0 15 -6t6 -15v-938q0 -201 -103 -304t-289 -103q-104 0 -193 40t-130 101q-10 17 4 29l51 45q16 13 29 -4q91 -105 242 -105q278 0 278 297v142h-2q-75 -160 -289 -160 q-122 0 -205 60t-120 173q-33 100 -33 267zM233 496q0 -144 29 -224q56 -172 240 -172q185 0 243 172q25 76 25 224q0 147 -25 223q-57 172 -243 172q-183 0 -240 -170q-29 -83 -29 -225z" />
<glyph unicode="h" horiz-adv-x="1107" d="M188 20v1352q0 9 6 15t15 6h70q20 0 20 -21v-532h2q37 73 112.5 115t176.5 42q163 0 252.5 -97t89.5 -275v-605q0 -20 -21 -20h-69q-21 0 -21 20v578q0 293 -256 293q-115 0 -190.5 -74t-75.5 -199v-598q0 -20 -20 -20h-70q-21 0 -21 20z" />
<glyph unicode="i" horiz-adv-x="487" d="M178 1257v115q0 9 6 15t15 6h90q20 0 20 -21v-115q0 -20 -20 -20h-90q-21 0 -21 20zM188 20v936q0 9 6 15t15 6h70q20 0 20 -21v-936q0 -20 -20 -20h-70q-21 0 -21 20z" />
<glyph unicode="j" horiz-adv-x="487" d="M4 -283q0 9 6 15t15 6h18q85 0 115 30t30 119v1069q0 9 6 15t15 6h70q20 0 20 -21v-1067q0 -141 -58 -199.5t-194 -58.5h-22q-9 0 -15 6t-6 15v65zM178 1257v115q0 9 6 15t15 6h90q20 0 20 -21v-115q0 -20 -20 -20h-90q-21 0 -21 20z" />
<glyph unicode="k" horiz-adv-x="1024" d="M188 20v1352q0 9 6 15t15 6h70q20 0 20 -21v-938l442 522q18 21 35 21h84q9 0 12.5 -7.5t-2.5 -13.5l-288 -342l364 -594q4 -8 0.5 -14t-12.5 -6h-84q-18 0 -31 20l-311 506l-209 -245v-261q0 -20 -20 -20h-70q-21 0 -21 20z" />
<glyph unicode="l" horiz-adv-x="536" d="M186 223v1149q0 9 6 15t15 6h69q9 0 15 -6t6 -15v-1145q0 -71 24 -99t80 -28h35q21 0 21 -20v-66q0 -20 -21 -20h-47q-110 0 -156.5 53.5t-46.5 175.5z" />
<glyph unicode="m" horiz-adv-x="1740" d="M188 20v936q0 9 6 15t15 6h70q20 0 20 -21v-116h2q37 73 112.5 115t176.5 42q228 0 303 -182h2q92 182 322 182q166 0 257 -97t91 -275v-605q0 -20 -21 -20h-69q-21 0 -21 20v578q0 293 -258 293q-115 0 -189.5 -74t-74.5 -199v-598q0 -20 -21 -20h-69q-21 0 -21 20v578 q0 293 -256 293q-115 0 -190.5 -74t-75.5 -199v-598q0 -20 -20 -20h-70q-21 0 -21 20z" />
<glyph unicode="n" horiz-adv-x="1107" d="M188 20v936q0 9 6 15t15 6h70q20 0 20 -21v-116h2q37 73 112.5 115t176.5 42q163 0 252.5 -97t89.5 -275v-605q0 -20 -21 -20h-69q-21 0 -21 20v578q0 293 -256 293q-115 0 -190.5 -74t-75.5 -199v-598q0 -20 -20 -20h-70q-21 0 -21 20z" />
<glyph unicode="o" horiz-adv-x="1042" d="M123 489q0 145 33 254q40 121 135 187.5t229 66.5q135 0 231 -66.5t136 -187.5q33 -109 33 -254q0 -147 -33 -256q-40 -121 -136 -187t-231 -66q-134 0 -229 66t-135 187q-33 109 -33 256zM236 489q0 -142 26 -221q29 -87 96.5 -134.5t161.5 -47.5q95 0 163 47t97 135 q27 83 27 221q0 137 -27 220q-29 88 -97 135t-163 47q-94 0 -161.5 -47.5t-96.5 -134.5q-26 -79 -26 -220z" />
<glyph unicode="p" horiz-adv-x="1087" d="M188 -348v1304q0 9 6 15t15 6h70q20 0 20 -21v-118h2q81 159 297 159q256 0 332 -233q35 -112 35 -277q0 -162 -35 -274q-76 -233 -332 -233q-216 0 -297 159h-2v-487q0 -21 -20 -21h-70q-9 0 -15 6t-6 15zM299 487q0 -149 27 -229q27 -85 91.5 -128.5t157.5 -43.5 q193 0 250 172q27 82 27 229q0 150 -27 232q-57 172 -250 172q-93 0 -157.5 -43.5t-91.5 -128.5q-27 -79 -27 -232z" />
<glyph unicode="q" horiz-adv-x="1087" d="M123 487q0 165 35 277q76 233 331 233q216 0 297 -159h2v118q0 9 6 15t15 6h70q20 0 20 -21v-1304q0 -21 -20 -21h-70q-9 0 -15 6t-6 15v487h-2q-81 -159 -297 -159q-255 0 -331 233q-35 112 -35 274zM236 487q0 -150 26 -229q57 -172 250 -172q94 0 158.5 43.5 t91.5 128.5q26 77 26 229q0 155 -26 232q-27 85 -91.5 128.5t-158.5 43.5q-193 0 -250 -172q-26 -79 -26 -232z" />
<glyph unicode="r" horiz-adv-x="811" d="M188 20v936q0 9 6 15t15 6h70q20 0 20 -21v-125h2q29 76 96 121t166 45q120 0 197 -67q17 -10 4 -27l-41 -57q-11 -14 -31 -4q-76 49 -155 49q-83 0 -137.5 -46t-77.5 -118t-23 -166v-541q0 -20 -20 -20h-70q-21 0 -21 20z" />
<glyph unicode="s" horiz-adv-x="985" d="M113 117q-14 14 0 28l45 52q12 12 28 0q143 -115 318 -115q124 0 189 50.5t65 137.5q0 78 -47 118t-176 54l-99 11q-138 14 -211 79.5t-73 180.5q0 133 91.5 208.5t252.5 75.5q181 0 325 -94q16 -13 4 -29l-37 -49q-10 -17 -28 -6q-53 31 -126.5 53.5t-144.5 22.5 q-111 0 -169 -45.5t-58 -128.5q0 -74 51.5 -113t173.5 -51l99 -10q282 -27 282 -262q0 -142 -97 -223.5t-277 -81.5q-216 0 -381 137z" />
<glyph unicode="t" horiz-adv-x="636" d="M80 899v57q0 21 20 21h103q12 0 12 12v281q0 20 21 20h69q21 0 21 -20v-281q0 -12 12 -12h184q9 0 15 -6t6 -15v-57q0 -20 -21 -20h-184q-12 0 -12 -13v-602q0 -96 35 -130t122 -34h39q21 0 21 -20v-66q0 -20 -21 -20h-53q-138 0 -196 60t-58 204v608q0 13 -12 13h-103 q-20 0 -20 20z" />
<glyph unicode="u" horiz-adv-x="1095" d="M172 350v606q0 9 6 15t15 6h69q9 0 15 -6t6 -15v-577q0 -148 62.5 -220.5t189.5 -72.5q113 0 187.5 74t74.5 198v598q0 21 20 21h70q20 0 20 -21v-936q0 -20 -20 -20h-70q-20 0 -20 20v115h-2q-37 -73 -111.5 -114t-173.5 -41q-162 0 -250 96.5t-88 273.5z" />
<glyph unicode="v" horiz-adv-x="958" d="M68 956q-3 9 1.5 15t14.5 6h76q17 0 26 -21l295 -782h2l289 782q9 21 27 21h75q10 0 15 -6t2 -15l-354 -936q-7 -20 -25 -20h-66q-17 0 -24 20z" />
<glyph unicode="w" horiz-adv-x="1507" d="M80 956q-7 21 14 21h74q18 0 27 -21l249 -780h2l254 780q7 21 25 21h59q18 0 25 -21l258 -780h2l244 780q9 21 26 21h74q21 0 14 -21l-305 -936q-6 -20 -24 -20h-64q-18 0 -24 20l-254 781h-2l-258 -781q-6 -20 -25 -20h-61q-19 0 -25 20z" />
<glyph unicode="x" horiz-adv-x="948" d="M76.5 6q-3.5 6 1.5 14l334 492l-301 444q-5 8 -1.5 14.5t13.5 6.5h84q18 0 29 -16l237 -353h2l240 353q11 16 28 16h82q10 0 14 -6.5t-1 -14.5l-303 -444l335 -492q5 -8 1.5 -14t-13.5 -6h-84q-18 0 -29 16l-270 398h-2l-272 -398q-11 -16 -29 -16h-82q-10 0 -13.5 6z " />
<glyph unicode="y" horiz-adv-x="956" d="M68 956q-7 21 14 21h78q17 0 26 -21l297 -784h2l289 784q6 21 25 21h78q9 0 13 -6t1 -15l-399 -1050q-42 -112 -83 -172t-86 -81.5t-112 -21.5h-43q-9 0 -15 6t-6 15v65q0 9 6 15t15 6h37q65 0 104.5 37.5t79.5 144.5l39 100z" />
<glyph unicode="z" horiz-adv-x="956" d="M119 20v62q0 14 10 27l580 759v2h-543q-9 0 -15 6t-6 15v65q0 9 6 15t15 6h655q9 0 15 -6t6 -15v-65q0 -13 -11 -27l-577 -755v-5h567q21 0 21 -20v-64q0 -20 -21 -20h-682q-20 0 -20 20z" />
<glyph unicode="{" horiz-adv-x="651" d="M145 643v66q0 17 21 20q58 3 87.5 42t29.5 130v399q0 113 45.5 164.5t142.5 51.5h70q20 0 20 -21v-55q0 -21 -20 -21h-54q-52 0 -76 -26.5t-24 -87.5v-392q0 -78 -11 -124.5t-32.5 -71t-60.5 -39.5v-4q58 -23 81 -72t23 -164v-399q0 -61 24 -88t76 -27h54q20 0 20 -20 v-56q0 -20 -20 -20h-70q-98 0 -143 51t-45 164v408q0 91 -29.5 130t-87.5 42q-21 3 -21 20z" />
<glyph unicode="|" horiz-adv-x="503" d="M203 -152v1647q0 21 20 21h58q20 0 20 -21v-1647q0 -20 -20 -20h-58q-20 0 -20 20z" />
<glyph unicode="}" horiz-adv-x="651" d="M90 -96q0 20 21 20h53q52 0 76 27t24 88v399q0 115 23.5 164t81.5 72v4q-58 23 -81.5 72.5t-23.5 162.5v392q0 61 -24 87.5t-76 26.5h-53q-9 0 -15 6t-6 15v55q0 9 6 15t15 6h69q98 0 143.5 -51.5t45.5 -164.5v-399q0 -91 29.5 -130t86.5 -42q21 -3 21 -20v-66 q0 -17 -21 -20q-57 -3 -86.5 -42t-29.5 -130v-408q0 -113 -45.5 -164t-143.5 -51h-69q-21 0 -21 20v56z" />
<glyph unicode="~" d="M125 522q38 75 103 118.5t141 43.5q40 0 79.5 -13.5t62 -27t58.5 -39.5q93 -65 152 -65q53 0 90.5 27t75.5 89q11 18 31 4l38 -24q17 -11 7 -29q-39 -76 -103 -120t-141 -44q-39 0 -78.5 13t-63.5 27.5t-59 39.5q-30 21 -49 32.5t-47.5 22.5t-54.5 11q-53 0 -91 -27 t-75 -90q-10 -17 -29 -4l-41 27q-14 9 -6 28z" />
<glyph unicode="&#xa1;" horiz-adv-x="544" d="M201 819v137q0 21 20 21h103q20 0 20 -21v-137q0 -20 -20 -20h-103q-20 0 -20 20zM211 -395l16 989q0 20 21 20h47q20 0 20 -20l17 -989q0 -9 -6 -15t-15 -6h-80q-20 0 -20 21z" />
<glyph unicode="&#xa2;" d="M178 487q0 144 33 256q34 108 116 174t201 76v170q0 9 6 15t15 6h37q20 0 20 -21v-166q215 -12 307 -182q10 -16 -6 -29l-49 -41q-6 -6 -15 -3.5t-14 10.5q-42 70 -92.5 102.5t-130.5 36.5v-805q79 4 130.5 37.5t92.5 101.5q5 8 14 10t15 -4l49 -41q14 -14 6 -30 q-46 -78 -124 -126t-183 -54v-168q0 -21 -20 -21h-37q-9 0 -15 6t-6 15v172q-120 10 -201.5 74.5t-115.5 174.5q-33 108 -33 254zM291 487q0 -137 28 -219q50 -159 209 -180v799q-159 -21 -209 -180q-28 -82 -28 -220z" />
<glyph unicode="&#xa3;" d="M164 629v55q0 21 20 21h103q12 0 12 12v346q0 166 84 258t227 92q117 0 194.5 -67t104.5 -179q3 -18 -16 -24l-66 -19q-20 -7 -24 15q-19 80 -69.5 124t-125.5 44q-90 0 -143 -58t-53 -172v-360q0 -12 12 -12h278q9 0 15 -6t6 -15v-55q0 -9 -6 -15t-15 -6h-278 q-12 0 -12 -12v-268q0 -145 -66 -219v-3h555q21 0 21 -20v-66q0 -20 -21 -20h-672q-20 0 -20 20v64q0 12 10 22q48 48 64 89t16 120v281q0 12 -12 12h-103q-20 0 -20 21z" />
<glyph unicode="&#xa4;" d="M106 264q-14 14 0 29l130 129q-76 102 -76 240q0 134 78 239l-132 131q-14 14 0 29l41 45q15 14 29 0l133 -133q100 78 238 78q130 0 235 -78l133 133q16 16 29 0l41 -45q16 -16 0 -29l-131 -131q78 -105 78 -239q0 -136 -76 -238l131 -131q13 -16 0 -29l-41 -47 q-16 -12 -28 0l-134 133q-105 -78 -237 -78q-135 0 -240 78l-131 -131q-14 -15 -29 0zM260 662q0 -124 81.5 -208.5t205.5 -84.5q123 0 203.5 84.5t80.5 208.5t-80.5 208t-203.5 84q-124 0 -205.5 -84t-81.5 -208z" />
<glyph unicode="&#xa5;" d="M122.5 1384.5q4.5 8.5 16.5 8.5h72q22 0 31 -21l303 -670h4l301 670q9 21 31 21h69q12 0 17 -8t0 -19l-330 -702v-2h246q20 0 20 -21v-51q0 -21 -20 -21h-271q-12 0 -12 -12v-123q0 -12 12 -12h271q20 0 20 -21v-51q0 -20 -20 -20h-271q-12 0 -12 -13v-297q0 -20 -20 -20 h-70q-21 0 -21 20v297q0 13 -12 13h-270q-21 0 -21 20v51q0 9 6 15t15 6h270q12 0 12 12v123q0 12 -12 12h-270q-9 0 -15 6t-6 15v51q0 9 6 15t15 6h246v2l-330 702q-5 10 -0.5 18.5z" />
<glyph unicode="&#xa6;" horiz-adv-x="503" d="M203 -152v689q0 20 20 20h58q20 0 20 -20v-689q0 -20 -20 -20h-58q-20 0 -20 20zM203 815v680q0 21 20 21h58q20 0 20 -21v-680q0 -20 -20 -20h-58q-20 0 -20 20z" />
<glyph unicode="&#xa7;" horiz-adv-x="1085" d="M188 518q0 122 56.5 212.5t167.5 121.5v2q-94 45 -136.5 107t-42.5 161q0 126 89 208.5t225 82.5q144 0 224.5 -80t82.5 -196q0 -20 -14 -23l-66 -14q-9 -3 -14.5 1.5t-5.5 12.5q-5 93 -57.5 146t-147.5 53q-96 0 -151.5 -50.5t-55.5 -140.5q0 -99 59 -153t209 -86 q287 -66 287 -365q0 -123 -56 -212t-161 -122v-2q87 -35 135.5 -98.5t48.5 -169.5q0 -139 -92.5 -221t-234.5 -82q-149 0 -235 79.5t-91 219.5q0 19 16 22l66 15q18 6 22 -15q0 -114 61 -167.5t161 -53.5q101 0 161 53.5t60 153.5q0 98 -65 151.5t-218 84.5 q-287 59 -287 364zM295 518q0 -126 68 -195t180 -69q111 0 179.5 69t68.5 195q0 125 -68.5 193.5t-179.5 68.5q-112 0 -180 -68t-68 -194z" />
<glyph unicode="&#xa8;" horiz-adv-x="862" d="M166 1257v115q0 21 20 21h82q9 0 15 -6t6 -15v-115q0 -20 -21 -20h-82q-20 0 -20 20zM573 1257v115q0 9 6 15t15 6h82q20 0 20 -21v-115q0 -20 -20 -20h-82q-21 0 -21 20z" />
<glyph unicode="&#xa9;" horiz-adv-x="1699" d="M133 696q0 151 55 284t150 228t228 150t284 55t284 -55t228 -150t150 -228t55 -284q0 -201 -93.5 -365t-258 -257.5t-365.5 -93.5t-365.5 93.5t-258 257.5t-93.5 365zM221 696q0 -177 82 -321.5t226 -226.5t321 -82t321 82t226 226.5t82 321.5q0 133 -48.5 250 t-131.5 200.5t-200 132t-249 48.5t-249 -48.5t-200 -132t-131.5 -200.5t-48.5 -250zM547 696q0 125 22 193q32 102 109 155.5t186 53.5q91 0 160.5 -39.5t108.5 -104.5q9 -15 -9 -26l-34 -33q-16 -7 -29 6q-71 109 -197 109q-158 0 -207 -148q-18 -55 -18 -166 q0 -110 18 -166q49 -147 207 -147q126 0 197 109q13 13 29 6l34 -33q19 -11 9 -27q-39 -65 -108.5 -104t-160.5 -39q-109 0 -186 53.5t-109 155.5q-22 68 -22 192z" />
<glyph unicode="&#xaa;" horiz-adv-x="696" d="M92 967q0 186 246 186h141q13 0 13 12v41q0 63 -33 89t-123 26q-96 0 -154 -39q-17 -13 -28 2l-21 39q-12 20 4 29q72 55 207 55q132 0 186 -45t54 -154v-385q0 -20 -21 -20h-49q-20 0 -20 20v41h-5q-50 -73 -190 -73q-92 0 -149.5 46t-57.5 130zM184 975q0 -49 37.5 -76 t102.5 -27q73 0 120.5 31.5t47.5 79.5v80q0 12 -13 12h-133q-162 0 -162 -100z" />
<glyph unicode="&#xab;" horiz-adv-x="1081" d="M135 540.5q0 8.5 6 14.5l351 360q6 6 13 3.5t7 -11.5v-92q0 -23 -14 -37l-228 -229q-8 -9 0 -17l228 -229q14 -14 14 -37v-92q0 -9 -7 -11.5t-13 3.5l-351 360q-6 6 -6 14.5zM549 540.5q0 8.5 6 14.5l350 360q6 6 13.5 3.5t7.5 -11.5v-92q0 -22 -15 -37l-227 -229 q-8 -9 0 -17l227 -229q15 -15 15 -37v-92q0 -9 -7.5 -11.5t-13.5 3.5l-350 360q-6 6 -6 14.5z" />
<glyph unicode="&#xac;" d="M135 535v61q0 20 21 20h778q20 0 20 -20v-336q0 -20 -20 -20h-66q-20 0 -20 20v242q0 12 -12 12h-680q-9 0 -15 6t-6 15z" />
<glyph unicode="&#xad;" horiz-adv-x="763" d="M100 514v64q0 20 21 20h524q21 0 21 -20v-64q0 -20 -21 -20h-524q-21 0 -21 20z" />
<glyph unicode="&#xae;" horiz-adv-x="940" d="M76 1010q0 167 113 280t282 113q167 0 280 -113t113 -280q0 -169 -113 -282.5t-280 -113.5q-169 0 -282 113.5t-113 282.5zM137 1010q0 -146 94.5 -241t239.5 -95q142 0 237 95.5t95 240.5q0 144 -95 238.5t-237 94.5q-145 0 -239.5 -94t-94.5 -239zM322 809v405 q0 19 18 19h162q65 0 102 -35t37 -94q0 -45 -22 -77t-64 -44l86 -172q11 -20 -12 -20h-35q-12 0 -21 14l-86 170h-92q-6 0 -6 -4v-162q0 -18 -18 -18h-31q-18 0 -18 18zM389 1040q0 -4 6 -4h105q78 0 78 68q0 70 -78 70h-105q-6 0 -6 -5v-129z" />
<glyph unicode="&#xaf;" horiz-adv-x="862" d="M164 1286v53q0 21 20 21h492q20 0 20 -21v-53q0 -20 -20 -20h-492q-20 0 -20 20z" />
<glyph unicode="&#xb0;" horiz-adv-x="917" d="M166 1114q0 126 83 209.5t208 83.5q126 0 209.5 -83.5t83.5 -209.5t-83.5 -209.5t-209.5 -83.5q-125 0 -208 83.5t-83 209.5zM250 1114q0 -93 58.5 -154t148.5 -61t149.5 61t59.5 154q0 92 -59 153.5t-150 61.5t-149 -61.5t-58 -153.5z" />
<glyph unicode="&#xb1;" d="M135 20v62q0 20 21 20h778q20 0 20 -20v-62q0 -20 -20 -20h-778q-21 0 -21 20zM135 602v62q0 20 21 20h323q13 0 13 12v328q0 20 20 20h66q20 0 20 -20v-328q0 -12 12 -12h324q20 0 20 -20v-62q0 -20 -20 -20h-324q-12 0 -12 -13v-327q0 -21 -20 -21h-66q-20 0 -20 21 v327q0 13 -13 13h-323q-21 0 -21 20z" />
<glyph unicode="&#xb2;" horiz-adv-x="677" d="M88 901v47q0 14 12 29l320 371q69 79 69 151q0 61 -39 100t-104 39q-61 0 -100 -32t-53 -90q-1 -9 -8.5 -14t-16.5 -3l-47 10q-22 4 -19 25q13 78 78.5 135t165.5 57q110 0 174 -65t64 -162q0 -55 -21.5 -102.5t-68.5 -104.5l-281 -319v-4h356q9 0 15 -6t6 -15v-47 q0 -20 -21 -20h-460q-21 0 -21 20z" />
<glyph unicode="&#xb3;" horiz-adv-x="677" d="M84 1036q-6 19 12 25l51 14q16 5 25 -12q21 -48 62.5 -78.5t103.5 -30.5q73 0 117.5 44t44.5 112t-46 113t-120 45h-37q-21 0 -21 20v47q0 9 6 15t15 6h31q69 0 111 38.5t42 104.5q0 63 -40 101t-109 38q-112 0 -150 -96q-6 -19 -22 -16l-47 12q-20 3 -17 23 q16 70 78 117.5t160 47.5q111 0 176 -62t65 -161q0 -115 -106 -184v-2q49 -21 87 -73.5t38 -131.5q0 -108 -70.5 -177t-183.5 -69q-101 0 -167 46.5t-89 123.5z" />
<glyph unicode="&#xb4;" horiz-adv-x="862" d="M290.5 1148.5q-3.5 5.5 0.5 14.5l158 250q12 21 34 21h78q9 0 12.5 -7t-2.5 -14l-180 -250q-17 -20 -37 -20h-51q-9 0 -12.5 5.5z" />
<glyph unicode="&#xb5;" horiz-adv-x="1114" d="M188 -348v1304q0 9 6 15t15 6h70q20 0 20 -21v-598q0 -133 64 -202.5t188 -69.5q115 0 188.5 73t73.5 199v598q0 9 6 15t15 6h71q9 0 15 -6t6 -15v-936q0 -20 -21 -20h-71q-21 0 -21 20v117h-2q-33 -73 -105.5 -115t-168.5 -42q-168 0 -234 104h-4v-432q0 -21 -20 -21 h-70q-9 0 -15 6t-6 15z" />
<glyph unicode="&#xb6;" horiz-adv-x="1167" d="M160 969q0 186 118 305t332 119h355q20 0 20 -21v-1720q0 -21 -20 -21h-64q-20 0 -20 21v1626q0 12 -13 12h-196q-13 0 -13 -12v-1626q0 -21 -20 -21h-64q-20 0 -20 21v893q-182 10 -288.5 128t-106.5 296z" />
<glyph unicode="&#xb7;" horiz-adv-x="448" d="M154 475v137q0 21 20 21h100q9 0 15 -6t6 -15v-137q0 -20 -21 -20h-100q-20 0 -20 20z" />
<glyph unicode="&#xb8;" horiz-adv-x="862" d="M332 -283l110 283q9 20 27 20h53q9 0 13.5 -5.5t1.5 -14.5l-95 -283q-8 -20 -32 -20h-64q-9 0 -13 5.5t-1 14.5z" />
<glyph unicode="&#xb9;" horiz-adv-x="677" d="M164 1509v66q0 21 14 29l139 96q18 12 33 12h51q21 0 21 -20v-791q0 -20 -21 -20h-53q-20 0 -20 20v694h-2l-142 -96q-8 -5 -14 -2t-6 12z" />
<glyph unicode="&#xba;" horiz-adv-x="708" d="M90 1098q0 80 21 145q55 164 243 164q189 0 244 -164q20 -62 20 -145q0 -84 -20 -146q-55 -164 -244 -164q-188 0 -243 164q-21 65 -21 146zM188 1098q0 -66 17 -115q34 -106 149 -106q116 0 150 106q16 46 16 115q0 68 -16 114q-34 107 -150 107q-115 0 -149 -107 q-17 -49 -17 -114z" />
<glyph unicode="&#xbb;" horiz-adv-x="1081" d="M156 174v92q0 23 14 37l227 229q9 8 0 17l-227 229q-14 14 -14 37v92q0 9 7 11.5t13 -3.5l350 -360q14 -15 0 -29l-350 -360q-6 -6 -13 -3.5t-7 11.5zM569 174v92q0 22 15 37l227 229q9 8 0 17l-227 229q-15 15 -15 37v92q0 9 7.5 11.5t13.5 -3.5l350 -360q14 -15 0 -29 l-350 -360q-6 -6 -13.5 -3.5t-7.5 11.5z" />
<glyph unicode="&#xbc;" horiz-adv-x="1695" d="M201 1190v65q0 21 14 29l139 96q20 13 33 13h51q9 0 15 -6t6 -15v-790q0 -9 -6 -15t-15 -6h-53q-20 0 -20 21v694h-3l-141 -96q-7 -5 -13.5 -2t-6.5 12zM366.5 -14.5q-3.5 5.5 0.5 14.5l807 1393q11 20 28 20h55q9 0 13 -5.5t0 -14.5l-807 -1393q-11 -20 -29 -20h-55 q-9 0 -12.5 5.5zM936 176v45q0 17 8 33l273 557q9 20 26 20h60q9 0 12.5 -6.5t-0.5 -13.5l-273 -565v-2h244q12 0 12 12v201q0 20 21 20h51q21 0 21 -20v-201q0 -12 12 -12h74q20 0 20 -21v-47q0 -20 -20 -20h-74q-12 0 -12 -13v-123q0 -20 -21 -20h-51q-21 0 -21 20v123 q0 13 -12 13h-330q-20 0 -20 20z" />
<glyph unicode="&#xbd;" horiz-adv-x="1759" d="M201 1190v65q0 21 14 29l139 96q20 13 33 13h51q9 0 15 -6t6 -15v-790q0 -9 -6 -15t-15 -6h-53q-20 0 -20 21v694h-3l-141 -96q-7 -5 -13.5 -2t-6.5 12zM366.5 -14.5q-3.5 5.5 0.5 14.5l807 1393q11 20 28 20h55q9 0 13 -5.5t0 -14.5l-807 -1393q-11 -20 -29 -20h-55 q-9 0 -12.5 5.5zM1057 20v48q0 13 12 28l320 371q69 79 69 151q0 61 -39 100.5t-104 39.5q-61 0 -100.5 -32.5t-53.5 -90.5q-3 -20 -24 -17l-47 11q-22 4 -19 24q13 78 78.5 135.5t165.5 57.5q110 0 173.5 -65t63.5 -163q0 -55 -21.5 -102t-68.5 -104l-280 -320v-4h356 q21 0 21 -20v-48q0 -20 -21 -20h-461q-20 0 -20 20z" />
<glyph unicode="&#xbe;" horiz-adv-x="1837" d="M201 717q-6 18 12 24l51 15q16 5 25 -13q21 -47 62.5 -77.5t103.5 -30.5q73 0 117 44t44 112t-45.5 112.5t-119.5 44.5h-37q-9 0 -15 6t-6 15v47q0 20 21 20h30q69 0 111.5 39t42.5 105q0 63 -40 101t-109 38q-112 0 -150 -96q-7 -20 -23 -17l-47 13q-19 3 -16 22 q16 70 78 118t160 48q111 0 176 -62t65 -161q0 -116 -106 -185v-2q49 -21 87 -73t38 -131q0 -108 -70.5 -177t-183.5 -69q-101 0 -167 46.5t-89 123.5zM507.5 -14.5q-3.5 5.5 0.5 14.5l807 1393q11 20 28 20h56q9 0 12.5 -5.5t-0.5 -14.5l-807 -1393q-11 -20 -29 -20h-55 q-9 0 -12.5 5.5zM1075 176v45q0 17 8 33l273 557q9 20 26 20h60q9 0 12.5 -6.5t-0.5 -13.5l-272 -565v-2h243q13 0 13 12v201q0 20 20 20h51q21 0 21 -20v-201q0 -12 12 -12h74q20 0 20 -21v-47q0 -20 -20 -20h-74q-12 0 -12 -13v-123q0 -20 -21 -20h-51q-20 0 -20 20v123 q0 13 -13 13h-329q-21 0 -21 20z" />
<glyph unicode="&#xbf;" horiz-adv-x="913" d="M102 -98q0 82 28 147t97 148l113 151q41 50 53.5 85.5t12.5 94.5v72q0 21 20 21h72q20 0 20 -21v-80q0 -65 -14 -109t-51 -92l-113 -149q-75 -92 -100 -147t-25 -121q0 -108 68 -170t174 -62q101 0 166.5 59.5t87.5 170.5q3 19 22 16l70 -12q20 -3 16 -25 q-22 -142 -118.5 -228.5t-245.5 -86.5q-157 0 -255 94.5t-98 243.5zM391 819v137q0 9 6 15t15 6h102q9 0 15 -6t6 -15v-137q0 -20 -21 -20h-102q-21 0 -21 20z" />
<glyph unicode="&#xc0;" horiz-adv-x="1220" d="M63 20l488 1352q7 21 24 21h74q18 0 25 -21l483 -1352q3 -9 -1 -14.5t-13 -5.5h-80q-22 0 -27 20l-123 342h-606l-123 -342q-8 -20 -26 -20h-80q-9 0 -13.5 5.5t-1.5 14.5zM346 475h528l-260 729h-6zM346.5 1812.5q2.5 6.5 11.5 6.5h82q22 0 37 -21l168 -213 q7 -9 4 -14.5t-12 -5.5h-53q-21 0 -37 18l-197 215q-6 8 -3.5 14.5z" />
<glyph unicode="&#xc1;" horiz-adv-x="1220" d="M63 20l488 1352q7 21 24 21h74q18 0 25 -21l483 -1352q3 -9 -1 -14.5t-13 -5.5h-80q-22 0 -27 20l-123 342h-606l-123 -342q-8 -20 -26 -20h-80q-9 0 -13.5 5.5t-1.5 14.5zM346 475h528l-260 729h-6zM577.5 1570.5q-2.5 5.5 4.5 14.5l168 213q15 21 36 21h82q9 0 12 -6.5 t-3 -14.5l-197 -215q-16 -18 -37 -18h-53q-10 0 -12.5 5.5z" />
<glyph unicode="&#xc2;" horiz-adv-x="1220" d="M63 20l488 1352q7 21 24 21h74q18 0 25 -21l483 -1352q3 -9 -1 -14.5t-13 -5.5h-80q-22 0 -27 20l-123 342h-606l-123 -342q-8 -20 -26 -20h-80q-9 0 -13.5 5.5t-1.5 14.5zM346 475h528l-260 729h-6zM365.5 1551q-2.5 7 3.5 14l184 252q13 18 33 18h47q18 0 31 -18 l186 -252q6 -7 3.5 -14t-11.5 -7h-51q-19 0 -35 21l-146 174h-4l-143 -174q-18 -21 -35 -21h-51q-9 0 -11.5 7z" />
<glyph unicode="&#xc3;" horiz-adv-x="1220" d="M63 20l488 1352q7 21 24 21h74q18 0 25 -21l483 -1352q3 -9 -1 -14.5t-13 -5.5h-80q-22 0 -27 20l-123 342h-606l-123 -342q-8 -20 -26 -20h-80q-9 0 -13.5 5.5t-1.5 14.5zM346 475h528l-260 729h-6zM356 1620v61q0 14 17 31q55 62 125 62q51 0 123 -41q53 -37 100 -37 q57 0 121 67q6 6 11 4t5 -10v-61q0 -17 -14 -33q-61 -61 -127 -61q-54 0 -123 43q-59 36 -100 36q-32 0 -58.5 -16.5t-60.5 -50.5q-7 -6 -13 -4t-6 10z" />
<glyph unicode="&#xc4;" horiz-adv-x="1220" d="M63 20l488 1352q7 21 24 21h74q18 0 25 -21l483 -1352q3 -9 -1 -14.5t-13 -5.5h-80q-22 0 -27 20l-123 342h-606l-123 -342q-8 -20 -26 -20h-80q-9 0 -13.5 5.5t-1.5 14.5zM344 1630v115q0 20 21 20h79q21 0 21 -20v-115q0 -20 -21 -20h-79q-21 0 -21 20zM346 475h528 l-260 729h-6zM754 1630v115q0 20 20 20h80q20 0 20 -20v-115q0 -20 -20 -20h-80q-20 0 -20 20z" />
<glyph unicode="&#xc5;" horiz-adv-x="1220" d="M63 20l488 1352q7 21 24 21h74q18 0 25 -21l483 -1352q3 -9 -1 -14.5t-13 -5.5h-80q-22 0 -27 20l-123 342h-606l-123 -342q-8 -20 -26 -20h-80q-9 0 -13.5 5.5t-1.5 14.5zM346 475h528l-260 729h-6zM428 1692q0 78 51 129t129 51t129 -51t51 -129t-51 -129.5t-129 -51.5 t-129 51.5t-51 129.5zM500 1692q0 -50 29.5 -82.5t78.5 -32.5t79 32.5t30 82.5t-30 82t-79 32t-78.5 -32t-29.5 -82z" />
<glyph unicode="&#xc6;" horiz-adv-x="1927" d="M65.5 6q-3.5 6 0.5 14l833 1354q13 19 31 19h868q9 0 15 -6t6 -15v-69q0 -9 -6 -15t-15 -6h-688q-12 0 -12 -12v-496q0 -12 12 -12h592q20 0 20 -21v-69q0 -21 -20 -21h-592q-12 0 -12 -12v-516q0 -12 12 -12h688q9 0 15 -6t6 -15v-70q0 -20 -21 -20h-797q-20 0 -20 20 v330q0 12 -12 12h-559l-213 -342q-10 -20 -29 -20h-90q-9 0 -12.5 6zM479 475h490q12 0 12 12v793h-4z" />
<glyph unicode="&#xc7;" horiz-adv-x="1138" d="M133 696q0 293 37 406q104 311 440 311q144 0 252.5 -66t167.5 -192q8 -19 -6 -27l-68 -32q-16 -9 -26 8q-105 199 -320 199q-246 0 -327 -232q-31 -95 -31 -375q0 -279 31 -374q81 -232 327 -232q215 0 320 199q10 17 26 8l68 -33q13 -8 6 -26q-108 -231 -373 -256 l-88 -265q-7 -20 -32 -20h-64q-9 0 -13 5.5t-1 14.5l102 265q-294 19 -391 309q-37 113 -37 405z" />
<glyph unicode="&#xc8;" horiz-adv-x="1138" d="M193 20v1352q0 21 20 21h797q20 0 20 -21v-69q0 -21 -20 -21h-688q-13 0 -13 -12v-496q0 -12 13 -12h591q9 0 15 -6t6 -15v-69q0 -9 -6 -15t-15 -6h-591q-13 0 -13 -12v-516q0 -12 13 -12h688q20 0 20 -21v-70q0 -20 -20 -20h-797q-20 0 -20 20zM381.5 1812.5 q2.5 6.5 11.5 6.5h82q22 0 37 -21l168 -213q7 -9 4.5 -14.5t-12.5 -5.5h-54q-20 0 -36 18l-197 215q-6 8 -3.5 14.5z" />
<glyph unicode="&#xc9;" horiz-adv-x="1138" d="M193 20v1352q0 21 20 21h797q20 0 20 -21v-69q0 -21 -20 -21h-688q-13 0 -13 -12v-496q0 -12 13 -12h591q9 0 15 -6t6 -15v-69q0 -9 -6 -15t-15 -6h-591q-13 0 -13 -12v-516q0 -12 13 -12h688q20 0 20 -21v-70q0 -20 -20 -20h-797q-20 0 -20 20zM513.5 1570.5 q-2.5 5.5 4.5 14.5l168 213q15 21 37 21h82q9 0 11.5 -6.5t-3.5 -14.5l-197 -215q-16 -18 -36 -18h-54q-10 0 -12.5 5.5z" />
<glyph unicode="&#xca;" horiz-adv-x="1138" d="M193 20v1352q0 21 20 21h797q20 0 20 -21v-69q0 -21 -20 -21h-688q-13 0 -13 -12v-496q0 -12 13 -12h591q9 0 15 -6t6 -15v-69q0 -9 -6 -15t-15 -6h-591q-13 0 -13 -12v-516q0 -12 13 -12h688q20 0 20 -21v-70q0 -20 -20 -20h-797q-20 0 -20 20zM367.5 1551 q-2.5 7 3.5 14l184 252q13 18 33 18h47q18 0 31 -18l186 -252q6 -7 3.5 -14t-11.5 -7h-51q-19 0 -35 21l-146 174h-4l-143 -174q-18 -21 -35 -21h-51q-9 0 -11.5 7z" />
<glyph unicode="&#xcb;" horiz-adv-x="1138" d="M193 20v1352q0 21 20 21h797q20 0 20 -21v-69q0 -21 -20 -21h-688q-13 0 -13 -12v-496q0 -12 13 -12h591q9 0 15 -6t6 -15v-69q0 -9 -6 -15t-15 -6h-591q-13 0 -13 -12v-516q0 -12 13 -12h688q20 0 20 -21v-70q0 -20 -20 -20h-797q-20 0 -20 20zM336 1630v115q0 20 20 20 h80q21 0 21 -20v-115q0 -20 -21 -20h-80q-20 0 -20 20zM745 1630v115q0 20 21 20h80q20 0 20 -20v-115q0 -20 -20 -20h-80q-21 0 -21 20z" />
<glyph unicode="&#xcc;" horiz-adv-x="501" d="M-3.5 1812.5q2.5 6.5 11.5 6.5h82q22 0 37 -21l168 -213q7 -9 4 -14.5t-12 -5.5h-54q-20 0 -36 18l-197 215q-6 8 -3.5 14.5zM193 20v1352q0 21 20 21h76q20 0 20 -21v-1352q0 -20 -20 -20h-76q-20 0 -20 20z" />
<glyph unicode="&#xcd;" horiz-adv-x="501" d="M193 20v1352q0 21 20 21h76q20 0 20 -21v-1352q0 -20 -20 -20h-76q-20 0 -20 20zM217 1570.5q-3 5.5 4 14.5l168 213q15 21 37 21h82q9 0 11.5 -6.5t-3.5 -14.5l-197 -215q-16 -18 -36 -18h-54q-9 0 -12 5.5z" />
<glyph unicode="&#xce;" horiz-adv-x="501" d="M8.5 1551q-2.5 7 3.5 14l185 252q13 18 32 18h47q18 0 31 -18l187 -252q6 -7 3 -14t-12 -7h-51q-19 0 -35 21l-145 174h-4l-144 -174q-18 -21 -34 -21h-52q-9 0 -11.5 7zM193 20v1352q0 21 20 21h76q20 0 20 -21v-1352q0 -20 -20 -20h-76q-20 0 -20 20z" />
<glyph unicode="&#xcf;" horiz-adv-x="501" d="M-12 1630v115q0 20 20 20h80q21 0 21 -20v-115q0 -20 -21 -20h-80q-20 0 -20 20zM193 20v1352q0 21 20 21h76q20 0 20 -21v-1352q0 -20 -20 -20h-76q-20 0 -20 20zM397 1630v115q0 20 21 20h80q20 0 20 -20v-115q0 -20 -20 -20h-80q-21 0 -21 20z" />
<glyph unicode="&#xd0;" horiz-adv-x="1269" d="M78 676v61q0 21 20 21h82q13 0 13 12v602q0 21 20 21h436q354 0 445 -283q22 -66 30.5 -149.5t8.5 -264.5t-8.5 -264t-30.5 -149q-91 -283 -445 -283h-436q-20 0 -20 20v623q0 12 -13 12h-82q-20 0 -20 21zM309 123q0 -12 13 -12h311q278 0 348 211q18 54 25.5 129.5 t7.5 244.5t-7.5 245t-25.5 130q-70 211 -348 211h-311q-13 0 -13 -12v-500q0 -12 13 -12h266q20 0 20 -21v-61q0 -21 -20 -21h-266q-13 0 -13 -12v-520z" />
<glyph unicode="&#xd1;" horiz-adv-x="1333" d="M193 20v1352q0 21 20 21h76q25 0 35 -21l694 -1145h6v1145q0 21 20 21h76q9 0 15 -6t6 -15v-1352q0 -20 -21 -20h-80q-22 0 -34 20l-689 1147h-8v-1147q0 -20 -20 -20h-76q-20 0 -20 20zM414 1620v61q0 15 16 31q55 62 125 62q51 0 123 -41q53 -37 100 -37q57 0 121 67 q6 6 11 4t5 -10v-61q0 -17 -14 -33q-61 -61 -127 -61q-54 0 -123 43q-59 36 -100 36q-32 0 -58.5 -16.5t-60.5 -50.5q-8 -6 -13 -4t-5 10z" />
<glyph unicode="&#xd2;" horiz-adv-x="1247" d="M133 696q0 168 10 255t31 149q51 154 166 233.5t285 79.5q169 0 283 -79.5t165 -233.5q21 -62 31 -149t10 -255t-10 -254.5t-31 -148.5q-51 -154 -165 -233.5t-283 -79.5q-170 0 -285 79.5t-166 233.5q-21 62 -31 148.5t-10 254.5zM252 696q0 -263 35 -370 q78 -236 338 -236q258 0 336 236q34 104 34 370q0 267 -34 371q-78 236 -336 236q-260 0 -338 -236q-35 -107 -35 -371zM394 1812.5q3 6.5 12 6.5h81q22 0 37 -21l168 -213q7 -9 4.5 -14.5t-12.5 -5.5h-53q-21 0 -37 18l-197 215q-6 8 -3 14.5z" />
<glyph unicode="&#xd3;" horiz-adv-x="1247" d="M133 696q0 168 10 255t31 149q51 154 166 233.5t285 79.5q169 0 283 -79.5t165 -233.5q21 -62 31 -149t10 -255t-10 -254.5t-31 -148.5q-51 -154 -165 -233.5t-283 -79.5q-170 0 -285 79.5t-166 233.5q-21 62 -31 148.5t-10 254.5zM252 696q0 -263 35 -370 q78 -236 338 -236q258 0 336 236q34 104 34 370q0 267 -34 371q-78 236 -336 236q-260 0 -338 -236q-35 -107 -35 -371zM549 1570.5q-3 5.5 4 14.5l168 213q15 21 37 21h82q9 0 11.5 -6.5t-3.5 -14.5l-197 -215q-16 -18 -37 -18h-53q-9 0 -12 5.5z" />
<glyph unicode="&#xd4;" horiz-adv-x="1247" d="M133 696q0 168 10 255t31 149q51 154 166 233.5t285 79.5q169 0 283 -79.5t165 -233.5q21 -62 31 -149t10 -255t-10 -254.5t-31 -148.5q-51 -154 -165 -233.5t-283 -79.5q-170 0 -285 79.5t-166 233.5q-21 62 -31 148.5t-10 254.5zM252 696q0 -263 35 -370 q78 -236 338 -236q258 0 336 236q34 104 34 370q0 267 -34 371q-78 236 -336 236q-260 0 -338 -236q-35 -107 -35 -371zM379.5 1551q-2.5 7 3.5 14l184 252q13 18 33 18h47q18 0 31 -18l186 -252q6 -7 3.5 -14t-11.5 -7h-51q-19 0 -35 21l-145 174h-4l-144 -174 q-18 -21 -35 -21h-51q-9 0 -11.5 7z" />
<glyph unicode="&#xd5;" horiz-adv-x="1247" d="M133 696q0 168 10 255t31 149q51 154 166 233.5t285 79.5q169 0 283 -79.5t165 -233.5q21 -62 31 -149t10 -255t-10 -254.5t-31 -148.5q-51 -154 -165 -233.5t-283 -79.5q-170 0 -285 79.5t-166 233.5q-21 62 -31 148.5t-10 254.5zM252 696q0 -263 35 -370 q78 -236 338 -236q258 0 336 236q34 104 34 370q0 267 -34 371q-78 236 -336 236q-260 0 -338 -236q-35 -107 -35 -371zM373 1620v61q0 15 16 31q55 62 125 62q51 0 123 -41q53 -37 100 -37q57 0 121 67q6 6 11 4t5 -10v-61q0 -17 -14 -33q-61 -61 -127 -61q-54 0 -123 43 q-59 36 -100 36q-32 0 -58.5 -16.5t-60.5 -50.5q-7 -6 -12.5 -4t-5.5 10z" />
<glyph unicode="&#xd6;" horiz-adv-x="1247" d="M133 696q0 168 10 255t31 149q51 154 166 233.5t285 79.5q169 0 283 -79.5t165 -233.5q21 -62 31 -149t10 -255t-10 -254.5t-31 -148.5q-51 -154 -165 -233.5t-283 -79.5q-170 0 -285 79.5t-166 233.5q-21 62 -31 148.5t-10 254.5zM252 696q0 -263 35 -370 q78 -236 338 -236q258 0 336 236q34 104 34 370q0 267 -34 371q-78 236 -336 236q-260 0 -338 -236q-35 -107 -35 -371zM358 1630v115q0 20 21 20h80q20 0 20 -20v-115q0 -20 -20 -20h-80q-21 0 -21 20zM768 1630v115q0 20 20 20h80q21 0 21 -20v-115q0 -20 -21 -20h-80 q-20 0 -20 20z" />
<glyph unicode="&#xd7;" d="M201 282.5q0 8.5 6 14.5l260 260q8 8 0 16l-260 261q-14 14 0 28l41 45q14 14 28 0l263 -260q8 -8 16 0l260 260q6 6 14.5 6t14.5 -6l41 -45q14 -14 0 -28l-260 -261q-8 -8 0 -16l260 -260q6 -6 6 -14.5t-6 -14.5l-41 -45q-6 -6 -14.5 -6t-14.5 6l-260 260q-8 8 -16 0 l-263 -260q-14 -14 -28 0l-41 45q-6 6 -6 14.5z" />
<glyph unicode="&#xd8;" horiz-adv-x="1247" d="M133 696q0 168 10 255t31 149q51 154 166 233.5t285 79.5q188 0 307 -98l67 119q10 20 31 20h49q9 0 13 -5.5t0 -14.5l-103 -179q54 -66 84 -155q21 -62 31 -149t10 -255t-10 -254.5t-31 -148.5q-51 -154 -165 -233.5t-283 -79.5q-189 0 -310 98l-67 -119 q-10 -20 -31 -20h-49q-9 0 -12.5 5.5t0.5 14.5l100 176q-52 67 -82 158q-21 62 -31 148.5t-10 254.5zM252 696q0 -263 35 -370q10 -37 35 -78l550 964q-94 91 -247 91q-260 0 -338 -236q-35 -107 -35 -371zM375 178q91 -88 250 -88q258 0 336 236q34 104 34 370 q0 267 -34 371q-17 47 -35 76z" />
<glyph unicode="&#xd9;" horiz-adv-x="1300" d="M178 481v891q0 9 6 15t15 6h75q9 0 15 -6t6 -15v-893q0 -193 92.5 -291t261.5 -98q171 0 264 98t93 291v893q0 21 20 21h76q20 0 20 -21v-891q0 -249 -125 -375t-348 -126q-221 0 -346 126t-125 375zM418.5 1812.5q2.5 6.5 11.5 6.5h82q22 0 37 -21l168 -213 q7 -9 4 -14.5t-12 -5.5h-54q-21 0 -37 18l-196 215q-6 8 -3.5 14.5z" />
<glyph unicode="&#xda;" horiz-adv-x="1300" d="M178 481v891q0 9 6 15t15 6h75q9 0 15 -6t6 -15v-893q0 -193 92.5 -291t261.5 -98q171 0 264 98t93 291v893q0 21 20 21h76q20 0 20 -21v-891q0 -249 -125 -375t-348 -126q-221 0 -346 126t-125 375zM573.5 1570.5q-2.5 5.5 4.5 14.5l167 213q15 21 37 21h82 q9 0 11.5 -6.5t-3.5 -14.5l-196 -215q-16 -18 -37 -18h-53q-10 0 -12.5 5.5z" />
<glyph unicode="&#xdb;" horiz-adv-x="1300" d="M178 481v891q0 9 6 15t15 6h75q9 0 15 -6t6 -15v-893q0 -193 92.5 -291t261.5 -98q171 0 264 98t93 291v893q0 21 20 21h76q20 0 20 -21v-891q0 -249 -125 -375t-348 -126q-221 0 -346 126t-125 375zM406.5 1551q-2.5 7 3.5 14l184 252q13 18 33 18h47q18 0 31 -18 l186 -252q6 -7 3.5 -14t-11.5 -7h-52q-18 0 -34 21l-146 174h-4l-143 -174q-18 -21 -35 -21h-51q-9 0 -11.5 7z" />
<glyph unicode="&#xdc;" horiz-adv-x="1300" d="M178 481v891q0 9 6 15t15 6h75q9 0 15 -6t6 -15v-893q0 -193 92.5 -291t261.5 -98q171 0 264 98t93 291v893q0 21 20 21h76q20 0 20 -21v-891q0 -249 -125 -375t-348 -126q-221 0 -346 126t-125 375zM385 1630v115q0 20 21 20h79q21 0 21 -20v-115q0 -20 -21 -20h-79 q-21 0 -21 20zM795 1630v115q0 20 20 20h80q20 0 20 -20v-115q0 -20 -20 -20h-80q-20 0 -20 20z" />
<glyph unicode="&#xdd;" horiz-adv-x="1054" d="M51 1370q-3 8 2 15.5t15 7.5h79q21 0 31 -21l350 -665h7l344 665q6 12 12 16.5t18 4.5h78q11 0 15.5 -7.5t1.5 -15.5l-418 -799v-551q0 -20 -21 -20h-76q-20 0 -20 20v551zM469 1570.5q-3 5.5 4 14.5l168 213q15 21 37 21h82q9 0 11.5 -6.5t-3.5 -14.5l-197 -215 q-16 -18 -36 -18h-54q-9 0 -12 5.5z" />
<glyph unicode="&#xde;" horiz-adv-x="1198" d="M193 20v1352q0 21 20 21h76q20 0 20 -21v-256q0 -12 13 -12h356q199 0 313.5 -105t114.5 -288t-114.5 -289.5t-313.5 -106.5h-356q-13 0 -13 -12v-283q0 -20 -20 -20h-76q-20 0 -20 20zM309 438q0 -12 13 -12h352q152 0 233.5 75t81.5 210t-81 208.5t-234 73.5h-352 q-13 0 -13 -12v-543z" />
<glyph unicode="&#xdf;" horiz-adv-x="1103" d="M188 20v996q0 198 92 297.5t298 99.5q180 0 273 -79.5t93 -221.5q0 -177 -145 -238v-4q106 -40 143 -151q23 -73 23 -266q0 -185 -23 -271q-34 -102 -117 -147t-217 -45h-30q-21 0 -21 20v66q0 20 21 20h28q96 0 151 30t79 101q18 53 18 226q0 175 -20 231 q-22 71 -79.5 101t-152.5 32h-24q-9 0 -15 6t-6 15v65q0 9 6 15t15 6h30q117 0 171.5 45t54.5 143q0 94 -65 145.5t-189 51.5q-152 0 -216.5 -68t-64.5 -225v-996q0 -20 -20 -20h-70q-21 0 -21 20z" />
<glyph unicode="&#xe0;" horiz-adv-x="1050" d="M135 268q0 144 95 216.5t276 72.5h248q12 0 12 12v101q0 123 -54 174t-200 51q-156 0 -246 -74q-17 -14 -30 2l-35 51q-10 16 6 29q112 94 311 94q193 0 274.5 -72.5t81.5 -250.5v-654q0 -20 -20 -20h-66q-20 0 -20 20v103h-2q-31 -64 -109 -103.5t-194 -39.5 q-151 0 -239.5 74.5t-88.5 213.5zM244 270q0 -92 62 -140t179 -48q126 0 203.5 60t77.5 159v150q0 12 -12 12h-234q-144 0 -210 -47.5t-66 -145.5zM358 1427q4 7 13 7h78q20 0 32 -21l158 -250q6 -9 2.5 -14.5t-12.5 -5.5h-51q-20 0 -37 20l-181 250q-6 7 -2 14z" />
<glyph unicode="&#xe1;" horiz-adv-x="1050" d="M135 268q0 144 95 216.5t276 72.5h248q12 0 12 12v101q0 123 -54 174t-200 51q-156 0 -246 -74q-17 -14 -30 2l-35 51q-10 16 6 29q112 94 311 94q193 0 274.5 -72.5t81.5 -250.5v-654q0 -20 -20 -20h-66q-20 0 -20 20v103h-2q-31 -64 -109 -103.5t-194 -39.5 q-151 0 -239.5 74.5t-88.5 213.5zM244 270q0 -92 62 -140t179 -48q126 0 203.5 60t77.5 159v150q0 12 -12 12h-234q-144 0 -210 -47.5t-66 -145.5zM470.5 1148.5q-3.5 5.5 0.5 14.5l158 250q12 21 35 21h77q9 0 13 -7t-2 -14l-181 -250q-17 -20 -36 -20h-52q-9 0 -12.5 5.5z " />
<glyph unicode="&#xe2;" horiz-adv-x="1050" d="M135 268q0 144 95 216.5t276 72.5h248q12 0 12 12v101q0 123 -54 174t-200 51q-156 0 -246 -74q-17 -14 -30 2l-35 51q-10 16 6 29q112 94 311 94q193 0 274.5 -72.5t81.5 -250.5v-654q0 -20 -20 -20h-66q-20 0 -20 20v103h-2q-31 -64 -109 -103.5t-194 -39.5 q-151 0 -239.5 74.5t-88.5 213.5zM244 270q0 -92 62 -140t179 -48q126 0 203.5 60t77.5 159v150q0 12 -12 12h-234q-144 0 -210 -47.5t-66 -145.5zM281.5 1149.5q-2.5 6.5 3.5 13.5l184 252q14 19 33 19h47q17 0 31 -19l186 -252q6 -7 3.5 -13.5t-11.5 -6.5h-51 q-20 0 -35 20l-146 174h-4l-143 -174q-17 -20 -35 -20h-51q-9 0 -11.5 6.5z" />
<glyph unicode="&#xe3;" horiz-adv-x="1050" d="M135 268q0 144 95 216.5t276 72.5h248q12 0 12 12v101q0 123 -54 174t-200 51q-156 0 -246 -74q-17 -14 -30 2l-35 51q-10 16 6 29q112 94 311 94q193 0 274.5 -72.5t81.5 -250.5v-654q0 -20 -20 -20h-66q-20 0 -20 20v103h-2q-31 -64 -109 -103.5t-194 -39.5 q-151 0 -239.5 74.5t-88.5 213.5zM244 270q0 -92 62 -140t179 -48q126 0 203.5 60t77.5 159v150q0 12 -12 12h-234q-144 0 -210 -47.5t-66 -145.5zM272 1239v61q0 14 17 31q55 62 125 62q51 0 123 -41q53 -37 100 -37q57 0 121 67q6 6 11 4t5 -10v-61q0 -17 -14 -33 q-61 -61 -127 -61q-54 0 -123 43q-59 36 -100 36q-32 0 -58.5 -16.5t-60.5 -50.5q-7 -6 -13 -4t-6 10z" />
<glyph unicode="&#xe4;" horiz-adv-x="1050" d="M135 268q0 144 95 216.5t276 72.5h248q12 0 12 12v101q0 123 -54 174t-200 51q-156 0 -246 -74q-17 -14 -30 2l-35 51q-10 16 6 29q112 94 311 94q193 0 274.5 -72.5t81.5 -250.5v-654q0 -20 -20 -20h-66q-20 0 -20 20v103h-2q-31 -64 -109 -103.5t-194 -39.5 q-151 0 -239.5 74.5t-88.5 213.5zM244 270q0 -92 62 -140t179 -48q126 0 203.5 60t77.5 159v150q0 12 -12 12h-234q-144 0 -210 -47.5t-66 -145.5zM258 1257v115q0 9 6 15t15 6h81q9 0 15 -6t6 -15v-115q0 -20 -21 -20h-81q-21 0 -21 20zM666 1257v115q0 21 20 21h82 q20 0 20 -21v-115q0 -20 -20 -20h-82q-20 0 -20 20z" />
<glyph unicode="&#xe5;" horiz-adv-x="1050" d="M135 268q0 144 95 216.5t276 72.5h248q12 0 12 12v101q0 123 -54 174t-200 51q-156 0 -246 -74q-17 -14 -30 2l-35 51q-10 16 6 29q112 94 311 94q193 0 274.5 -72.5t81.5 -250.5v-654q0 -20 -20 -20h-66q-20 0 -20 20v103h-2q-31 -64 -109 -103.5t-194 -39.5 q-151 0 -239.5 74.5t-88.5 213.5zM244 270q0 -92 62 -140t179 -48q126 0 203.5 60t77.5 159v150q0 12 -12 12h-234q-144 0 -210 -47.5t-66 -145.5zM348 1288q0 78 51 129t129 51t129.5 -51t51.5 -129t-51.5 -129t-129.5 -51t-129 51t-51 129zM420 1288q0 -50 29.5 -82 t78.5 -32t79 32t30 82t-30 82.5t-79 32.5t-78.5 -32.5t-29.5 -82.5z" />
<glyph unicode="&#xe6;" horiz-adv-x="1667" d="M135 268q0 144 95 216.5t276 72.5h248q12 0 12 12v101q0 123 -54 174t-200 51q-156 0 -246 -74q-17 -14 -30 2l-35 51q-10 16 6 29q112 94 311 94q136 0 215.5 -38t106.5 -125h4q94 163 309 163q133 0 229.5 -66t135.5 -188q28 -85 28 -260q0 -20 -22 -20h-637 q-13 0 -13 -14q0 -105 21 -173q66 -190 276 -190q174 0 273 125q13 17 29 4l47 -43q15 -12 2 -29q-56 -75 -148 -119t-209 -44q-244 0 -342 190h-2q-80 -190 -358 -190q-151 0 -239.5 74.5t-88.5 213.5zM244 270q0 -92 62 -140t179 -48q126 0 203.5 60t77.5 159v150 q0 12 -12 12h-234q-144 0 -210 -47.5t-66 -145.5zM874 569q0 -12 13 -12h534q13 0 13 12q0 80 -19 142q-29 90 -96.5 137t-165.5 47q-96 0 -163.5 -47t-96.5 -137q-19 -62 -19 -142z" />
<glyph unicode="&#xe7;" horiz-adv-x="962" d="M123 487q0 151 31 256q38 120 133.5 187t230.5 67q219 0 330 -184q10 -17 -6 -27l-58 -36q-16 -9 -26 8q-44 69 -100 101t-140 32q-96 0 -161.5 -47t-94.5 -137q-26 -77 -26 -220q0 -140 26 -217q29 -90 94.5 -137t161.5 -47q84 0 140 32t100 101q10 17 26 8l58 -37 q16 -10 6 -26q-103 -165 -283 -182l-88 -265q-7 -20 -33 -20h-63q-9 0 -13 5.5t-1 14.5l102 267q-117 11 -199 75.5t-116 173.5q-31 105 -31 254z" />
<glyph unicode="&#xe8;" horiz-adv-x="1028" d="M123 489q0 159 29 254q39 122 134 188t228 66t229.5 -66t135.5 -188q28 -85 28 -260q0 -20 -22 -20h-637q-12 0 -12 -14q0 -109 20 -173q66 -190 276 -190q174 0 273 125q13 17 29 4l47 -43q15 -12 2 -29q-56 -75 -148 -119t-209 -44q-142 0 -237.5 66t-136.5 192 q-29 95 -29 251zM236 569q0 -12 12 -12h534q13 0 13 12q0 80 -19 142q-29 90 -96.5 137t-165.5 47q-96 0 -163.5 -47t-96.5 -137q-18 -59 -18 -142zM302.5 1427q3.5 7 12.5 7h78q21 0 33 -21l158 -250q6 -9 2 -14.5t-13 -5.5h-51q-20 0 -37 20l-180 250q-6 7 -2.5 14z" />
<glyph unicode="&#xe9;" horiz-adv-x="1028" d="M123 489q0 159 29 254q39 122 134 188t228 66t229.5 -66t135.5 -188q28 -85 28 -260q0 -20 -22 -20h-637q-12 0 -12 -14q0 -109 20 -173q66 -190 276 -190q174 0 273 125q13 17 29 4l47 -43q15 -12 2 -29q-56 -75 -148 -119t-209 -44q-142 0 -237.5 66t-136.5 192 q-29 95 -29 251zM236 569q0 -12 12 -12h534q13 0 13 12q0 80 -19 142q-29 90 -96.5 137t-165.5 47q-96 0 -163.5 -47t-96.5 -137q-18 -59 -18 -142zM448.5 1148.5q-3.5 5.5 0.5 14.5l157 250q12 21 35 21h78q9 0 12.5 -7t-2.5 -14l-180 -250q-17 -20 -37 -20h-51 q-9 0 -12.5 5.5z" />
<glyph unicode="&#xea;" horiz-adv-x="1028" d="M123 489q0 159 29 254q39 122 134 188t228 66t229.5 -66t135.5 -188q28 -85 28 -260q0 -20 -22 -20h-637q-12 0 -12 -14q0 -109 20 -173q66 -190 276 -190q174 0 273 125q13 17 29 4l47 -43q15 -12 2 -29q-56 -75 -148 -119t-209 -44q-142 0 -237.5 66t-136.5 192 q-29 95 -29 251zM236 569q0 -12 12 -12h534q13 0 13 12q0 80 -19 142q-29 90 -96.5 137t-165.5 47q-96 0 -163.5 -47t-96.5 -137q-18 -59 -18 -142zM269 1149.5q-3 6.5 3 13.5l185 252q14 19 32 19h48q16 0 30 -19l187 -252q6 -7 3 -13.5t-12 -6.5h-51q-20 0 -35 20 l-145 174h-4l-143 -174q-18 -20 -35 -20h-51q-9 0 -12 6.5z" />
<glyph unicode="&#xeb;" horiz-adv-x="1028" d="M123 489q0 159 29 254q39 122 134 188t228 66t229.5 -66t135.5 -188q28 -85 28 -260q0 -20 -22 -20h-637q-12 0 -12 -14q0 -109 20 -173q66 -190 276 -190q174 0 273 125q13 17 29 4l47 -43q15 -12 2 -29q-56 -75 -148 -119t-209 -44q-142 0 -237.5 66t-136.5 192 q-29 95 -29 251zM236 569q0 -12 12 -12h534q13 0 13 12q0 80 -19 142q-29 90 -96.5 137t-165.5 47q-96 0 -163.5 -47t-96.5 -137q-18 -59 -18 -142zM248 1257v115q0 21 20 21h82q9 0 15 -6t6 -15v-115q0 -20 -21 -20h-82q-20 0 -20 20zM655 1257v115q0 9 6 15t15 6h82 q20 0 20 -21v-115q0 -20 -20 -20h-82q-21 0 -21 20z" />
<glyph unicode="&#xec;" horiz-adv-x="487" d="M1.5 1427q3.5 7 12.5 7h78q21 0 33 -21l158 -250q6 -9 2 -14.5t-13 -5.5h-51q-20 0 -37 20l-180 250q-6 7 -2.5 14zM188 20v936q0 9 6 15t15 6h70q20 0 20 -21v-936q0 -20 -20 -20h-70q-21 0 -21 20z" />
<glyph unicode="&#xed;" horiz-adv-x="487" d="M188 20v936q0 9 6 15t15 6h70q20 0 20 -21v-936q0 -20 -20 -20h-70q-21 0 -21 20zM206.5 1148.5q-3.5 5.5 0.5 14.5l158 250q12 21 34 21h78q9 0 12.5 -7t-2.5 -14l-180 -250q-17 -20 -37 -20h-51q-9 0 -12.5 5.5z" />
<glyph unicode="&#xee;" horiz-adv-x="487" d="M0.5 1149.5q-2.5 6.5 3.5 13.5l184 252q14 19 33 19h47q17 0 31 -19l186 -252q6 -7 3.5 -13.5t-11.5 -6.5h-51q-20 0 -35 20l-145 174h-4l-144 -174q-18 -20 -35 -20h-51q-9 0 -11.5 6.5zM188 20v936q0 9 6 15t15 6h70q20 0 20 -21v-936q0 -20 -20 -20h-70q-21 0 -21 20z " />
<glyph unicode="&#xef;" horiz-adv-x="487" d="M-20 1257v115q0 21 20 21h82q20 0 20 -21v-115q0 -20 -20 -20h-82q-20 0 -20 20zM188 20v936q0 9 6 15t15 6h70q20 0 20 -21v-936q0 -20 -20 -20h-70q-21 0 -21 20zM387 1257v115q0 9 6 15t15 6h81q9 0 15 -6t6 -15v-115q0 -20 -21 -20h-81q-21 0 -21 20z" />
<glyph unicode="&#xf0;" horiz-adv-x="1042" d="M123 477q0 145 33 246q38 118 128 184t212 66q98 0 180 -55h2l-184 229l-197 -60q-10 -3 -18.5 2t-10.5 13l-14 51q-3 19 16 25l160 47l-117 147q-6 8 -2 14.5t13 6.5h86q16 0 34 -21l93 -115l192 58q24 7 27 -12l14 -50q3 -20 -14 -26l-156 -47l80 -97 q131 -162 185.5 -292.5t54.5 -290.5q0 -162 -31 -267q-40 -121 -136 -187t-231 -66q-136 0 -231 65.5t-135 187.5q-33 101 -33 244zM236 477q0 -132 26 -211q29 -87 96.5 -133.5t163.5 -46.5q94 0 161.5 46.5t96.5 133.5q27 82 27 211q0 127 -27 207q-29 88 -96 137t-162 49 t-163 -47t-97 -135q-26 -77 -26 -211z" />
<glyph unicode="&#xf1;" horiz-adv-x="1107" d="M188 20v936q0 9 6 15t15 6h70q20 0 20 -21v-116h2q37 73 112.5 115t176.5 42q163 0 252.5 -97t89.5 -275v-605q0 -20 -21 -20h-69q-21 0 -21 20v578q0 293 -256 293q-115 0 -190.5 -74t-75.5 -199v-598q0 -20 -20 -20h-70q-21 0 -21 20zM301 1239v61q0 15 16 31 q55 62 125 62q51 0 123 -41q53 -37 101 -37q33 0 60.5 16.5t59.5 50.5q6 6 11.5 4t5.5 -10v-61q0 -15 -15 -33q-61 -61 -126 -61q-54 0 -123 43q-59 36 -101 36q-32 0 -58.5 -16.5t-60.5 -50.5q-7 -6 -12.5 -4t-5.5 10z" />
<glyph unicode="&#xf2;" horiz-adv-x="1042" d="M123 489q0 145 33 254q40 121 135 187.5t229 66.5q135 0 231 -66.5t136 -187.5q33 -109 33 -254q0 -147 -33 -256q-40 -121 -136 -187t-231 -66q-134 0 -229 66t-135 187q-33 109 -33 256zM236 489q0 -142 26 -221q29 -87 96.5 -134.5t161.5 -47.5q95 0 163 47t97 135 q27 83 27 221q0 137 -27 220q-29 88 -97 135t-163 47q-94 0 -161.5 -47.5t-96.5 -134.5q-26 -79 -26 -220zM302.5 1427q3.5 7 12.5 7h78q21 0 33 -21l158 -250q6 -9 2 -14.5t-13 -5.5h-51q-20 0 -37 20l-180 250q-6 7 -2.5 14z" />
<glyph unicode="&#xf3;" horiz-adv-x="1042" d="M123 489q0 145 33 254q40 121 135 187.5t229 66.5q135 0 231 -66.5t136 -187.5q33 -109 33 -254q0 -147 -33 -256q-40 -121 -136 -187t-231 -66q-134 0 -229 66t-135 187q-33 109 -33 256zM236 489q0 -142 26 -221q29 -87 96.5 -134.5t161.5 -47.5q95 0 163 47t97 135 q27 83 27 221q0 137 -27 220q-29 88 -97 135t-163 47q-94 0 -161.5 -47.5t-96.5 -134.5q-26 -79 -26 -220zM454.5 1148.5q-3.5 5.5 0.5 14.5l157 250q12 21 35 21h78q9 0 12.5 -7t-2.5 -14l-180 -250q-17 -20 -37 -20h-51q-9 0 -12.5 5.5z" />
<glyph unicode="&#xf4;" horiz-adv-x="1042" d="M123 489q0 145 33 254q40 121 135 187.5t229 66.5q135 0 231 -66.5t136 -187.5q33 -109 33 -254q0 -147 -33 -256q-40 -121 -136 -187t-231 -66q-134 0 -229 66t-135 187q-33 109 -33 256zM236 489q0 -142 26 -221q29 -87 96.5 -134.5t161.5 -47.5q95 0 163 47t97 135 q27 83 27 221q0 137 -27 220q-29 88 -97 135t-163 47q-94 0 -161.5 -47.5t-96.5 -134.5q-26 -79 -26 -220zM275.5 1149.5q-2.5 6.5 3.5 13.5l184 252q14 19 33 19h47q16 0 30 -19l187 -252q6 -7 3.5 -13.5t-11.5 -6.5h-52q-19 0 -34 20l-146 174h-4l-143 -174 q-18 -20 -35 -20h-51q-9 0 -11.5 6.5z" />
<glyph unicode="&#xf5;" horiz-adv-x="1042" d="M123 489q0 145 33 254q40 121 135 187.5t229 66.5q135 0 231 -66.5t136 -187.5q33 -109 33 -254q0 -147 -33 -256q-40 -121 -136 -187t-231 -66q-134 0 -229 66t-135 187q-33 109 -33 256zM236 489q0 -142 26 -221q29 -87 96.5 -134.5t161.5 -47.5q95 0 163 47t97 135 q27 83 27 221q0 137 -27 220q-29 88 -97 135t-163 47q-94 0 -161.5 -47.5t-96.5 -134.5q-26 -79 -26 -220zM268 1239v61q0 14 17 31q55 62 125 62q50 0 122 -41q53 -37 101 -37q57 0 121 67q6 6 11 4t5 -10v-61q0 -17 -14 -33q-61 -61 -127 -61q-54 0 -123 43 q-59 36 -100 36q-32 0 -58.5 -16.5t-60.5 -50.5q-7 -6 -13 -4t-6 10z" />
<glyph unicode="&#xf6;" horiz-adv-x="1042" d="M123 489q0 145 33 254q40 121 135 187.5t229 66.5q135 0 231 -66.5t136 -187.5q33 -109 33 -254q0 -147 -33 -256q-40 -121 -136 -187t-231 -66q-134 0 -229 66t-135 187q-33 109 -33 256zM236 489q0 -142 26 -221q29 -87 96.5 -134.5t161.5 -47.5q95 0 163 47t97 135 q27 83 27 221q0 137 -27 220q-29 88 -97 135t-163 47q-94 0 -161.5 -47.5t-96.5 -134.5q-26 -79 -26 -220zM254 1257v115q0 21 20 21h82q9 0 15 -6t6 -15v-115q0 -20 -21 -20h-82q-20 0 -20 20zM662 1257v115q0 21 20 21h82q20 0 20 -21v-115q0 -20 -20 -20h-82 q-20 0 -20 20z" />
<glyph unicode="&#xf7;" d="M135 535v61q0 20 21 20h778q20 0 20 -20v-61q0 -21 -20 -21h-778q-9 0 -15 6t-6 15zM457 264q0 37 25.5 62.5t62.5 25.5t62.5 -25.5t25.5 -62.5t-25.5 -62.5t-62.5 -25.5t-62.5 25.5t-25.5 62.5zM457 866q0 37 25.5 62.5t62.5 25.5t62.5 -25.5t25.5 -62.5t-25.5 -62.5 t-62.5 -25.5t-62.5 25.5t-25.5 62.5z" />
<glyph unicode="&#xf8;" horiz-adv-x="1042" d="M123 489q0 145 33 254q40 121 135 187.5t229 66.5q146 0 248 -79l68 100q14 20 34 20h35q9 0 12 -6t-2 -14l-98 -150q45 -50 70 -125q33 -109 33 -254q0 -147 -33 -256q-40 -121 -136 -187t-231 -66q-148 0 -246 79l-67 -100q-14 -20 -35 -20h-35q-9 0 -12 6.5t2 13.5 l96 147q-44 56 -67 127q-33 109 -33 256zM236 489q0 -142 26 -221q10 -31 29 -63l416 620q-72 66 -187 66q-94 0 -161.5 -47.5t-96.5 -134.5q-26 -79 -26 -220zM336 152q72 -66 184 -66q95 0 163 47t97 135q27 83 27 221q0 137 -27 220q-14 39 -28 63z" />
<glyph unicode="&#xf9;" horiz-adv-x="1095" d="M172 350v606q0 9 6 15t15 6h69q9 0 15 -6t6 -15v-577q0 -148 62.5 -220.5t189.5 -72.5q113 0 187.5 74t74.5 198v598q0 21 20 21h70q20 0 20 -21v-936q0 -20 -20 -20h-70q-20 0 -20 20v115h-2q-37 -73 -111.5 -114t-173.5 -41q-162 0 -250 96.5t-88 273.5zM335.5 1427 q3.5 7 12.5 7h78q21 0 33 -21l157 -250q6 -9 2.5 -14.5t-12.5 -5.5h-51q-20 0 -37 20l-180 250q-6 7 -2.5 14z" />
<glyph unicode="&#xfa;" horiz-adv-x="1095" d="M172 350v606q0 9 6 15t15 6h69q9 0 15 -6t6 -15v-577q0 -148 62.5 -220.5t189.5 -72.5q113 0 187.5 74t74.5 198v598q0 21 20 21h70q20 0 20 -21v-936q0 -20 -20 -20h-70q-20 0 -20 20v115h-2q-37 -73 -111.5 -114t-173.5 -41q-162 0 -250 96.5t-88 273.5zM476.5 1148.5 q-3.5 5.5 0.5 14.5l158 250q12 21 35 21h78q9 0 12.5 -7t-2.5 -14l-180 -250q-17 -20 -37 -20h-52q-9 0 -12.5 5.5z" />
<glyph unicode="&#xfb;" horiz-adv-x="1095" d="M172 350v606q0 9 6 15t15 6h69q9 0 15 -6t6 -15v-577q0 -148 62.5 -220.5t189.5 -72.5q113 0 187.5 74t74.5 198v598q0 21 20 21h70q20 0 20 -21v-936q0 -20 -20 -20h-70q-20 0 -20 20v115h-2q-37 -73 -111.5 -114t-173.5 -41q-162 0 -250 96.5t-88 273.5zM301.5 1149.5 q-2.5 6.5 3.5 13.5l184 252q14 19 33 19h47q17 0 31 -19l186 -252q6 -7 3.5 -13.5t-11.5 -6.5h-51q-20 0 -35 20l-145 174h-4l-144 -174q-17 -20 -34 -20h-52q-9 0 -11.5 6.5z" />
<glyph unicode="&#xfc;" horiz-adv-x="1095" d="M172 350v606q0 9 6 15t15 6h69q9 0 15 -6t6 -15v-577q0 -148 62.5 -220.5t189.5 -72.5q113 0 187.5 74t74.5 198v598q0 21 20 21h70q20 0 20 -21v-936q0 -20 -20 -20h-70q-20 0 -20 20v115h-2q-37 -73 -111.5 -114t-173.5 -41q-162 0 -250 96.5t-88 273.5zM281 1257v115 q0 21 20 21h82q20 0 20 -21v-115q0 -20 -20 -20h-82q-20 0 -20 20zM688 1257v115q0 9 6 15t15 6h82q20 0 20 -21v-115q0 -20 -20 -20h-82q-21 0 -21 20z" />
<glyph unicode="&#xfd;" horiz-adv-x="956" d="M68 956q-7 21 14 21h78q17 0 26 -21l297 -784h2l289 784q6 21 25 21h78q9 0 13 -6t1 -15l-399 -1050q-42 -112 -83 -172t-86 -81.5t-112 -21.5h-43q-9 0 -15 6t-6 15v65q0 9 6 15t15 6h37q65 0 104.5 37.5t79.5 144.5l39 100zM417.5 1148.5q-3.5 5.5 0.5 14.5l157 250 q12 21 35 21h78q9 0 12.5 -7t-2.5 -14l-180 -250q-17 -20 -37 -20h-51q-9 0 -12.5 5.5z" />
<glyph unicode="&#xfe;" horiz-adv-x="1087" d="M188 -348v1720q0 9 6 15t15 6h70q20 0 20 -21v-534h2q81 159 297 159q256 0 332 -233q35 -112 35 -277q0 -162 -35 -274q-76 -233 -332 -233q-216 0 -297 159h-2v-487q0 -21 -20 -21h-70q-9 0 -15 6t-6 15zM299 487q0 -149 27 -229q27 -85 91.5 -128.5t157.5 -43.5 q193 0 250 172q27 82 27 229q0 150 -27 232q-57 172 -250 172q-93 0 -157.5 -43.5t-91.5 -128.5q-27 -79 -27 -232z" />
<glyph unicode="&#xff;" horiz-adv-x="956" d="M68 956q-7 21 14 21h78q17 0 26 -21l297 -784h2l289 784q6 21 25 21h78q9 0 13 -6t1 -15l-399 -1050q-42 -112 -83 -172t-86 -81.5t-112 -21.5h-43q-9 0 -15 6t-6 15v65q0 9 6 15t15 6h37q65 0 104.5 37.5t79.5 144.5l39 100zM215 1257v115q0 9 6 15t15 6h81q9 0 15 -6 t6 -15v-115q0 -20 -21 -20h-81q-21 0 -21 20zM623 1257v115q0 21 20 21h82q20 0 20 -21v-115q0 -20 -20 -20h-82q-20 0 -20 20z" />
<glyph unicode="&#x152;" horiz-adv-x="1943" d="M135 696q0 168 10 255t31 149q51 154 166 233.5t285 79.5q262 0 368 -201h2v160q0 9 6 15t15 6h797q20 0 20 -21v-69q0 -21 -20 -21h-689q-12 0 -12 -12v-496q0 -12 12 -12h592q9 0 15 -6t6 -15v-69q0 -9 -6 -15t-15 -6h-592q-12 0 -12 -12v-516q0 -12 12 -12h689 q20 0 20 -21v-70q0 -20 -20 -20h-797q-21 0 -21 20v160h-2q-105 -200 -368 -200q-170 0 -285 79.5t-166 233.5q-21 62 -31 148.5t-10 254.5zM254 696q0 -263 35 -370q78 -236 338 -236q258 0 336 236q34 104 34 370q0 267 -34 371q-78 236 -336 236q-260 0 -338 -236 q-35 -107 -35 -371z" />
<glyph unicode="&#x153;" horiz-adv-x="1712" d="M123 487q0 161 33 256q38 120 133.5 187t230.5 67q119 0 207.5 -52.5t132.5 -151.5h2q45 100 132 152t204 52q133 0 227.5 -66t135.5 -188q28 -95 28 -260q0 -20 -22 -20h-637q-12 0 -12 -14q3 -111 22 -173q62 -190 274 -190q180 0 275 125q16 16 31 4l43 -43 q15 -12 2 -29q-56 -75 -148 -119t-209 -44q-253 0 -344 204h-4q-44 -100 -131.5 -152t-208.5 -52q-135 0 -230.5 66t-133.5 187q-33 95 -33 254zM236 489q0 -142 26 -221q29 -87 96.5 -134.5t161.5 -47.5q95 0 163 47t97 135q27 83 27 221q0 137 -27 220q-29 88 -97 135 t-163 47q-94 0 -161.5 -47.5t-96.5 -134.5q-26 -79 -26 -220zM918 569q0 -12 12 -12h534q13 0 13 12q0 80 -19 142q-31 90 -97.5 137t-162.5 47t-163.5 -47t-96.5 -137q-20 -65 -20 -142z" />
<glyph unicode="&#x178;" horiz-adv-x="1054" d="M51 1370q-3 8 2 15.5t15 7.5h79q21 0 31 -21l350 -665h7l344 665q6 12 12 16.5t18 4.5h78q11 0 15.5 -7.5t1.5 -15.5l-418 -799v-551q0 -20 -21 -20h-76q-20 0 -20 20v551zM262 1630v115q0 20 21 20h79q21 0 21 -20v-115q0 -20 -21 -20h-79q-21 0 -21 20zM672 1630v115 q0 20 20 20h80q21 0 21 -20v-115q0 -20 -21 -20h-80q-20 0 -20 20z" />
<glyph unicode="&#x2c6;" horiz-adv-x="862" d="M187 1149.5q-3 6.5 3 13.5l185 252q14 19 33 19h47q16 0 30 -19l187 -252q6 -7 3.5 -13.5t-11.5 -6.5h-52q-19 0 -34 20l-146 174h-4l-143 -174q-17 -20 -35 -20h-51q-9 0 -12 6.5z" />
<glyph unicode="&#x2dc;" horiz-adv-x="862" d="M178 1239v61q0 14 17 31q55 62 124 62q51 0 123 -41q53 -37 101 -37q57 0 121 67q6 6 11 4t5 -10v-61q0 -17 -14 -33q-61 -61 -127 -61q-54 0 -123 43q-59 36 -101 36q-32 0 -57.5 -16t-60.5 -51q-7 -6 -13 -4t-6 10z" />
<glyph unicode="&#x2000;" horiz-adv-x="936" />
<glyph unicode="&#x2001;" horiz-adv-x="1872" />
<glyph unicode="&#x2002;" horiz-adv-x="936" />
<glyph unicode="&#x2003;" horiz-adv-x="1872" />
<glyph unicode="&#x2004;" horiz-adv-x="624" />
<glyph unicode="&#x2005;" horiz-adv-x="468" />
<glyph unicode="&#x2006;" horiz-adv-x="312" />
<glyph unicode="&#x2007;" horiz-adv-x="312" />
<glyph unicode="&#x2008;" horiz-adv-x="234" />
<glyph unicode="&#x2009;" horiz-adv-x="374" />
<glyph unicode="&#x200a;" horiz-adv-x="104" />
<glyph unicode="&#x2010;" horiz-adv-x="765" d="M100 514v64q0 20 21 20h524q21 0 21 -20v-64q0 -20 -21 -20h-524q-21 0 -21 20z" />
<glyph unicode="&#x2011;" horiz-adv-x="765" d="M100 514v64q0 20 21 20h524q21 0 21 -20v-64q0 -20 -21 -20h-524q-21 0 -21 20z" />
<glyph unicode="&#x2012;" horiz-adv-x="765" d="M100 514v64q0 20 21 20h524q21 0 21 -20v-64q0 -20 -21 -20h-524q-21 0 -21 20z" />
<glyph unicode="&#x2013;" horiz-adv-x="1032" d="M55 516v59q0 9 6 15t15 6h880q9 0 15 -6t6 -15v-59q0 -20 -21 -20h-880q-21 0 -21 20z" />
<glyph unicode="&#x2014;" horiz-adv-x="1699" d="M55 516v59q0 9 6 15t15 6h1548q9 0 15 -6t6 -15v-59q0 -20 -21 -20h-1548q-21 0 -21 20z" />
<glyph unicode="&#x2018;" horiz-adv-x="423" d="M152 1087v142q0 30 10 45l69 106q10 15 23 15q8 0 13 -6t5 -15v-287q0 -20 -20 -20h-80q-20 0 -20 20z" />
<glyph unicode="&#x2019;" horiz-adv-x="423" d="M152 1085v287q0 21 20 21h80q20 0 20 -21v-141q0 -30 -10 -45l-69 -107q-9 -14 -23 -14q-18 0 -18 20z" />
<glyph unicode="&#x201a;" horiz-adv-x="423" d="M152 137q0 21 20 21h80q20 0 20 -21v-141q0 -30 -10 -45l-69 -107q-9 -14 -23 -14q-18 0 -18 20v287z" />
<glyph unicode="&#x201c;" horiz-adv-x="708" d="M152 1087v142q0 30 10 45l69 106q10 15 23 15q8 0 13 -6t5 -15v-287q0 -20 -20 -20h-80q-20 0 -20 20zM436 1087v142q0 30 10 45l70 106q10 15 23 15q8 0 13 -6t5 -15v-287q0 -20 -20 -20h-80q-21 0 -21 20z" />
<glyph unicode="&#x201d;" horiz-adv-x="708" d="M152 1085v287q0 21 20 21h80q20 0 20 -21v-141q0 -30 -10 -45l-69 -107q-9 -14 -23 -14q-18 0 -18 20zM436 1085v287q0 9 6 15t15 6h80q20 0 20 -21v-141q0 -30 -10 -45l-70 -107q-9 -14 -22 -14q-8 0 -13.5 5.5t-5.5 14.5z" />
<glyph unicode="&#x201e;" horiz-adv-x="708" d="M152 -94v287q0 20 20 20h80q20 0 20 -20v-142q0 -30 -10 -45l-69 -106q-10 -15 -23 -15q-8 0 -13 6t-5 15zM436 -94v287q0 20 21 20h80q20 0 20 -20v-142q0 -30 -10 -45l-70 -106q-10 -15 -22 -15q-8 0 -13.5 6t-5.5 15z" />
<glyph unicode="&#x2022;" horiz-adv-x="866" d="M199 631q0 102 66.5 169.5t166.5 67.5q102 0 169 -67t67 -170t-67.5 -170.5t-168.5 -67.5q-100 0 -166.5 67.5t-66.5 170.5z" />
<glyph unicode="&#x2026;" horiz-adv-x="1345" d="M154 20v138q0 20 20 20h100q21 0 21 -20v-138q0 -20 -21 -20h-100q-20 0 -20 20zM602 20v138q0 20 21 20h100q20 0 20 -20v-138q0 -20 -20 -20h-100q-21 0 -21 20zM1051 20v138q0 20 20 20h100q21 0 21 -20v-138q0 -20 -21 -20h-100q-20 0 -20 20z" />
<glyph unicode="&#x202f;" horiz-adv-x="374" />
<glyph unicode="&#x2039;" horiz-adv-x="667" d="M135 540.5q0 8.5 6 14.5l351 360q6 6 13 3.5t7 -11.5v-92q0 -23 -14 -37l-228 -229q-8 -9 0 -17l228 -229q14 -14 14 -37v-92q0 -9 -7 -11.5t-13 3.5l-351 360q-6 6 -6 14.5z" />
<glyph unicode="&#x203a;" horiz-adv-x="667" d="M156 174v92q0 23 14 37l227 229q9 8 0 17l-227 229q-14 14 -14 37v92q0 9 7 11.5t13 -3.5l350 -360q14 -15 0 -29l-350 -360q-6 -6 -13 -3.5t-7 11.5z" />
<glyph unicode="&#x205f;" horiz-adv-x="468" />
<glyph unicode="&#x20ac;" d="M94 551v51q0 9 6 15t15 6h96q12 0 12 12v135q0 12 -12 12h-96q-9 0 -15 6t-6 15v51q0 20 21 20h96q12 0 12 13q0 175 27 266q42 126 135 193t233 67q136 0 226.5 -66t134.5 -171q10 -19 -10 -27l-56 -31q-17 -7 -26 12q-90 177 -269 177q-199 0 -258 -181 q-24 -65 -24 -239q0 -13 12 -13h436q9 0 14.5 -6.5t2.5 -15.5l-17 -49q-7 -21 -24 -21h-412q-12 0 -12 -12v-135q0 -12 12 -12h375q9 0 14 -7t2 -16l-16 -49q-7 -21 -25 -21h-350q-12 0 -12 -12q0 -114 5 -164t19 -88q59 -180 258 -180q179 0 269 176q9 19 26 12l56 -30 q20 -8 10 -27q-44 -105 -134.5 -171t-226.5 -66q-140 0 -233 67t-135 193q-27 91 -27 278q0 12 -12 12h-96q-9 0 -15 6t-6 15z" />
<glyph unicode="&#x2122;" horiz-adv-x="1673" d="M84 1329v43q0 21 20 21h566q20 0 20 -21v-43q0 -20 -20 -20h-226q-12 0 -12 -13v-690q0 -20 -20 -20h-50q-20 0 -20 20v690q0 13 -12 13h-226q-20 0 -20 20zM842 606v766q0 21 20 21h47q17 0 27 -19l268 -561h6l265 561q9 19 24 19h49q9 0 15 -6t6 -15v-766 q0 -20 -21 -20h-45q-20 0 -20 20v580h-4l-230 -469q-9 -17 -24 -17h-39q-16 0 -25 17l-229 469h-4v-580q0 -20 -21 -20h-45q-20 0 -20 20z" />
<glyph unicode="&#x25fc;" horiz-adv-x="972" d="M0 0v973h973v-973h-973z" />
</font>
</defs>
</svg>
